<?xml version="1.0" standalone="no"?>
<!DOCTYPE svg PUBLIC "-//W3C//DTD SVG 1.1//EN" "http://www.w3.org/Graphics/SVG/1.1/DTD/svg11.dtd" >
<svg xmlns="http://www.w3.org/2000/svg">
<metadata>Generated by IcoMoon</metadata>
<defs>
<font id="icomoon" horiz-adv-x="1024">
<font-face units-per-em="1024" ascent="960" descent="-64" />
<missing-glyph horiz-adv-x="1024" />
<glyph unicode="&#x20;" horiz-adv-x="512" d="" />
<glyph unicode="&#xe900;" glyph-name="single" d="M944 864.896h-49.632v14.752c0 44.224-36 80.352-80 80.352h-1.184c-44 0-80-36.128-80-80.352v-14.752h-442.432v14.752c0 44.224-36 80.352-80 80.352h-1.216c-44 0-80-36.128-80-80.352v-14.752h-49.536c-44 0-80-36.192-80-80.32v-768.224c0-44.224 36-80.352 80-80.352h864c44 0 80 36.16 80 80.352v768.224c0 44.16-36 80.32-80 80.32zM765.184 879.648c0 26.56 21.504 48.224 48 48.224h1.184c26.464 0 48-21.632 48-48.224v-142.944c0-26.56-21.536-48.224-48-48.224h-1.184c-26.496 0-48 21.632-48 48.224v142.944zM161.536 879.648c0 26.56 21.504 48.224 48 48.224h1.216c26.432 0 48-21.632 48-48.224v-142.944c0-26.56-21.568-48.224-48-48.224h-1.216c-26.496 0-48 21.632-48 48.224v142.944zM944 0.256h-864c-8.672 0-16 7.456-16 16.096v564.832h896v-564.832c0-8.64-7.328-16.096-16-16.096v0zM586.208 474.848v-388.064h-112.384v222.656h-89.056v78.464c66.432-1.408 105.312 27.552 116.64 86.944h84.832z" />
<glyph unicode="&#xe901;" glyph-name="repeat" d="M911.84 835.904h-46.272v13.76c0 41.216-33.568 74.88-74.56 74.88h-1.12c-41.024 0-74.56-33.696-74.56-74.88v-13.76h-412.352v13.76c0 41.216-33.568 74.88-74.56 74.88h-1.12c-41.024 0-74.56-33.696-74.56-74.88v-13.76h-46.176c-41.024 0-74.56-33.728-74.56-74.88v-716c0-41.216 33.568-74.88 74.56-74.88h805.28c41.024 0 74.56 33.696 74.56 74.88v716c0 41.152-33.568 74.88-74.56 74.88zM745.184 849.664c0 24.768 20.032 44.928 44.736 44.928h1.12c24.672 0 44.736-20.16 44.736-44.928v-133.216c0-24.768-20.064-44.928-44.736-44.928h-1.12c-24.704 0-44.736 20.16-44.736 44.928v133.216zM182.56 849.664c0 24.768 20.032 44.928 44.736 44.928h1.12c24.64 0 44.736-20.16 44.736-44.928v-133.216c0-24.768-20.096-44.928-44.736-44.928h-1.12c-24.704 0-44.736 20.16-44.736 44.928v133.216zM911.84 30.016h-805.28c-8.096 0-14.912 6.976-14.912 15.008v526.432h835.104v-526.432c0-8.064-6.816-15.008-14.912-15.008v0zM203.552 392.288h137.344v67.968h-137.344v-67.968zM443.36 392.288h136.256v67.968h-136.256v-67.968zM682.112 392.288h134.080v67.968h-134.080v-67.968zM203.552 255.296h137.344v66.848h-137.344v-66.848zM443.36 255.296h136.256v66.848h-136.256v-66.848zM682.112 255.296h134.080v66.848h-134.080v-66.848zM203.552 117.184h137.344v70.144h-137.344v-70.144zM443.36 117.184h136.256v70.144h-136.256v-70.144zM682.112 117.184h134.080v70.144h-134.080v-70.144z" />
<glyph unicode="&#xe902;" glyph-name="edit2" d="M460.111 512.424l-50.511-184.745 184.199 51.225 290.911 290.525-135.314 131.883-289.285-288.888zM862.642 914.43c36.877 36.866 96.743 36.866 133.662 0 36.927-36.882 36.927-96.655 0-133.541l-70.369-70.302-135.765 131.458 72.472 72.386zM884.433-49.743h-758.061c-33.497-0.026-65.631 13.254-89.333 36.924s-37.026 55.783-37.039 89.28v757.335c0.013 33.495 13.338 65.609 37.039 89.28s55.836 36.949 89.333 36.924h531.277l-52.82-52.769-73.269-73.435h-405.131v-757.335h758.003v407.266l126.43 126.146v-533.412c-0.013-33.522-13.364-65.668-37.099-89.339-23.74-23.676-55.918-36.936-89.441-36.865h0.11z" />
<glyph unicode="&#xe903;" glyph-name="link" d="M441.169 330.843c-11.608 0-23.215 2.923-31.92 11.696-40.626 40.936-58.038 90.646-58.038 149.129 0 58.481 17.411 105.266 58.038 146.204l261.164 263.166c40.626 40.938 87.056 58.483 145.092 58.483s104.467-17.545 145.092-58.483c84.153-84.799 84.153-213.458 0-295.331l-174.11-172.522c-17.411-17.545-40.626-17.545-58.036 0-17.411 17.545-17.411 40.938 0 58.483l174.11 175.445c49.331 49.71 49.331 125.735 0 175.445-23.215 23.392-55.135 35.089-89.958 35.089s-60.938-11.697-84.152-35.089l-261.165-263.168c-49.331-49.71-49.331-125.735 0-175.445 17.411-17.545 17.411-40.936 0-58.481-5.804-5.849-14.509-14.62-26.116-14.62zM209.022-63.909c-55.134 0-104.465 17.545-145.092 58.483-84.153 84.797-84.153 216.381 0 301.18l171.208 166.672c17.411 17.545 43.529 17.545 60.94 0 17.411-17.543 17.411-43.861 0-61.405l-171.209-166.672c-49.331-49.71-52.232-131.584-2.901-178.369 49.33-46.785 130.581-46.785 179.912 0l255.361 263.166c46.429 46.785 34.822 137.433 0 172.522-17.411 17.545-17.411 43.861 0 61.405s43.529 17.545 60.938 0c40.626-40.938 55.135-87.723 55.135-146.204s-17.411-105.268-58.036-146.204l-261.165-263.168c-40.625-43.861-89.956-61.405-145.092-61.405z" />
<glyph unicode="&#xe904;" glyph-name="lego" d="M265.143 245.029h497.298v402.286h-497.298v-402.286zM466.286 707.657v47.543h95.086v-47.543h261.486v-522.971h-120.442l63.39-95.086h-95.086l-63.39 95.086h-187.002l-63.39-95.086h-95.086l63.39 95.086h-120.442v522.971h261.486zM559.326 380.613l131.881 124.804-38.712 40.907-97.017-91.811-94.419 72.345-122.231-126.174 40.451-39.187 87.335 90.152 92.711-71.037z" />
<glyph unicode="&#xe905;" glyph-name="file-link" d="M808.561 644.64c-37.68 37.2-87.76 57.84-141.2 57.92h-0.56c-25.68 0-50.72-4.8-74.56-14.24-24.72-9.84-46.96-24.32-66-43.12l-186.32-184.16c-21.52-21.28-33.28-49.68-33.2-80 0.080-30.24 12-58.64 33.6-80s50.24-33.12 80.8-33.2h0.24c30.48 0 59.040 11.68 80.48 32.8l163.52 161.6c5.44 5.36 8.4 12.48 8.4 20 0 7.6-2.96 14.72-8.4 20-5.36 5.36-12.56 8.24-20.16 8.24s-14.8-2.96-20.16-8.24l-163.52-161.6c-10.64-10.56-24.96-16.32-40.24-16.32h-0.080c-15.44 0.080-29.92 6-40.64 16.64-10.8 10.72-16.8 24.96-16.8 40.16-0.080 15.12 5.76 29.28 16.48 39.84l186.32 184.24c26.56 26.32 62.24 40.8 100.32 40.8h0.4c38.24-0.080 74.16-14.8 101.12-41.36 26.88-26.64 41.76-62.080 41.84-99.84s-14.56-73.12-41.2-99.44l-197.68-195.6c-39.52-38.88-92.32-60.32-148.64-60.32h-0.56c-56.56 0.16-109.68 21.92-149.52 61.28s-61.84 91.84-61.92 147.76c-0.16 55.92 21.6 108.24 61.12 147.28l255.2 252.32c5.44 5.36 8.4 12.48 8.4 20 0 7.6-2.96 14.72-8.4 20-5.44 5.36-12.64 8.32-20.24 8.32s-14.8-2.96-20.16-8.24l-255.2-252.4c-25.44-25.12-45.12-54.64-58.56-87.6-12.88-31.84-19.36-65.44-19.28-99.84 0.080-34.48 6.72-68.080 19.84-99.84 13.52-32.96 33.28-62.48 58.88-87.76 25.44-25.2 55.36-44.8 88.72-58.24 32-12.88 66-19.44 100.96-19.6h0.72c34.72 0 68.4 6.4 100.24 19.12 33.28 13.2 63.12 32.64 88.56 57.84l197.68 195.52c18.96 18.8 33.68 40.72 43.6 65.28 9.6 23.76 14.48 48.72 14.4 74.4-0.24 52.8-21.040 102.4-58.64 139.6z" />
<glyph unicode="&#xe906;" glyph-name="copy" d="M185.648 183.472h-185.648v741.382h742.588v-185.346h-123.763v61.784h-495.060v-494.257h61.884zM273.067-29.867v682.667h750.933v-682.667h-750.933zM398.227 83.911h500.619v455.108h-500.619v-455.108z" />
<glyph unicode="&#xe907;" glyph-name="close2" d="M512.081 392.474l-444.885-444.943c-7.365-7.383-17.365-11.531-27.79-11.531-15.932-0.069-30.323 9.505-36.42 24.227-6.097 14.717-2.682 31.666 8.635 42.879l444.9 444.92-445.025 444.966c-15.329 15.327-15.329 40.184 0 55.512 15.331 15.327 40.189 15.327 55.52 0l445.019-444.962 446.207 446.227c15.531 14.13 39.431 13.557 54.264-1.304 14.84-14.859 15.376-38.762 1.223-54.277l-446.137-446.195 445.107-445.051c11.094-11.274 14.356-28.095 8.284-42.7-6.074-14.606-20.307-24.154-36.121-24.241-10.416 0.006-20.4 4.149-27.764 11.516l-445.017 444.958z" />
<glyph unicode="&#xe908;" glyph-name="close" d="M974.208 817.12l-93.12 93.12-369.12-369.12-369.12 369.12-93.12-93.12 369.12-369.12-369.12-369.12 93.12-93.12 369.12 369.12 369.12-369.12 93.12 93.12-369.12 369.12z" />
<glyph unicode="&#xe909;" glyph-name="circle-correct" d="M511.985-64c-282.307 0-511.985 229.683-511.985 512.015 0 282.307 229.678 511.985 511.985 511.985 76.787 0 150.596-16.592 219.391-49.278l-27.802-58.557c-60.040 28.536-124.507 42.997-191.589 42.997-246.562 0-447.146-200.585-447.146-447.146s200.585-447.178 447.146-447.178c246.562 0 447.178 200.616 447.178 447.178h64.837c0-282.332-229.685-512.015-512.015-512.015zM170.667 432l238.344-240 529.656 533.336-63.562 63.998-466.094-464.004-174.787 170.668z" />
<glyph unicode="&#xe90a;" glyph-name="utm" d="M103.421 119.263c-64.643 88.517-103.421 200.372-103.421 322.087 0 285.975 213.211 518.649 475.429 518.649 64.731 0 126.537-14.323 182.857-40.016v-88.21c-54.857 30.72-117.029 48.434-182.857 48.434-221.989 0-402.286-196.887-402.286-438.857 0-115.945 41.889-221.28 109.308-299.786v103.26h73.956v-199.517h-199.517v73.956h46.532zM920.579 776.737c64.643-88.517 103.421-200.372 103.421-322.087 0-285.975-213.211-518.649-475.429-518.649-64.731 0-126.537 14.323-182.857 40.016v88.21c54.857-30.72 117.029-48.434 182.857-48.434 221.989 0 402.286 196.887 402.286 438.857 0 115.945-41.889 221.28-109.308 299.786v-103.26h-73.956v199.517h199.517v-73.956h-46.532zM369.333 365.111l2.222-11.778h1.333l2.222 10.889 64.222 236.667h78.667l-104.889-323.556h-81.111l-104.444 323.556h78.444l63.333-235.778zM710.667 363.111c0 11.556-3.778 20.407-11.333 26.556s-21.259 12.704-41.111 19.667c-40.148 13.037-69.963 26.926-89.444 41.667s-29.222 35.963-29.222 63.667c0 27.111 11.333 49.037 34 65.778s51.481 25.111 86.444 25.111c36.889 0 66.592-8.63 89.111-25.889s33.407-41.592 32.667-73l-0.444-1.333h-72.889c0 15.259-4.148 26.333-12.444 33.222s-20.815 10.333-37.556 10.333c-13.63 0-24.37-3.333-32.222-10s-11.778-14.889-11.778-24.667c0-9.482 4.037-17.074 12.111-22.778s23.148-12.852 45.222-21.444c37.482-11.111 65.852-24.667 85.111-40.667s28.889-37.926 28.889-65.778c0-28.445-11.111-50.704-33.333-66.778s-51.704-24.111-88.444-24.111c-36.593 0-67.592 8.63-93 25.889s-37.741 44.407-37 81.444l0.444 1.333h73.111c0-18.815 4.63-32.185 13.889-40.111s23.444-11.889 42.556-11.889c15.704 0 27.407 3.111 35.111 9.333s11.556 14.37 11.556 24.444z" />
<glyph unicode="&#xe90b;" glyph-name="user-nav" d="M263.68 135.68h-66.56c0 173.908 140.972 314.88 314.88 314.88s314.88-140.972 314.88-314.88h-66.56c0 137.148-111.172 248.32-248.32 248.32s-248.32-111.172-248.32-248.32zM647.68 586.24c0 74.942-60.738 135.68-135.68 135.68s-135.68-60.738-135.68-135.68c0-74.942 60.738-135.68 135.68-135.68s135.68 60.738 135.68 135.68zM714.24 586.24c0-111.702-90.538-202.24-202.24-202.24s-202.24 90.538-202.24 202.24c0 111.702 90.538 202.24 202.24 202.24s202.24-90.538 202.24-202.24zM568.32 417.28h-112.64l28.16-84.48h56.32zM455.68 135.68h112.64l-28.16 168.96h-56.32z" />
<glyph unicode="&#xe90c;" glyph-name="share" d="M204.8 602.44v65.72h226.643v-65.72h-226.643zM760.848 308.69c32.224 0 58.352-26.122 58.352-58.345 0-32.225-26.121-58.345-58.343-58.345-32.22 0-58.344 26.12-58.344 58.345 0 5.101 0.719 10.018 1.945 14.726l-127.356 65.87c-12.208-13.624-29.886-22.251-49.624-22.251-36.822 0-66.679 29.853-66.679 66.678s29.857 66.678 66.679 66.678c23.804 0 44.639-12.517 56.443-31.297l121.547 63.027c-1.903 5.761-2.962 11.887-2.962 18.279 0 32.225 26.122 58.345 58.342 58.345 32.224 0 58.345-26.122 58.345-58.345s-26.121-58.345-58.345-58.345c-17.767 0-33.655 7.969-44.354 20.497l-122.589-73.863c0.119-1.649 0.249-3.294 0.249-4.977 0-5.802-0.818-11.394-2.209-16.761l122.53-72.965c10.652 13.99 27.438 23.048 46.372 23.048zM204.8 572.825h301.97l75.69 131.175h226.28v-127.081h-74.354v61.354h-105.583c-29.339-53.548-49.504-88.114-60.497-103.698-16.489-23.377-47.623-27.001-54.706-27.001-4.722 0-82.215 0-232.478 0v-196.575h176.766v-65.858h-253.087v327.686z" />
<glyph unicode="&#xe90d;" glyph-name="pack-up" d="M102.4 667.428h768v87.772h-768v-87.772zM102.4 140.8h768v87.772h-768v-87.772zM372.398 316.344h498.002v87.772h-498.002v-87.772zM372.398 491.889h498.002v87.767h-498.002v-87.767zM282.403 579.656v-263.311l-180.003 134.585 180.003 128.726z" />
<glyph unicode="&#xe90e;" glyph-name="overview" d="M295.385 256.985h433.231v433.231h-433.231v-433.231zM230.4 755.2h563.2v-563.2h-563.2v563.2zM560.997 402.998l142.025 134.405-41.689 44.053-104.479-98.873-101.682 77.911-131.633-135.879 43.563-42.202 94.053 97.087 99.843-76.501z" />
<glyph unicode="&#xe90f;" glyph-name="metadata" d="M266.24 474.602c0-45.794 117.64-95.054 250.88-95.054v0c133.24 0 250.88 49.26 250.88 95.054v50.128c-58.28-34.937-153.232-55.248-250.88-55.248s-192.6 20.311-250.88 55.248v-50.128zM266.24 329.35c0-45.628 115.688-100.063 250.88-100.063v0c135.192 0 250.88 54.434 250.88 100.063v52.512c-58.324-39.036-150.657-62.641-250.88-62.641s-192.556 23.604-250.88 62.641v-52.512zM517.12 699.993v-5.12c-139.656 0-250.88-43.649-250.88-82.532s111.224-82.532 250.88-82.532c139.656 0 250.88 43.649 250.88 82.532s-111.224 82.532-250.88 82.532v5.12zM517.12 750.080v5.12c170.243 0 312.32-56.779 312.32-142.859v-282.991c0-87.947-143.328-160.39-312.32-160.39s-312.32 72.442-312.32 160.39v282.991c0 86.080 142.077 142.859 312.32 142.859v-5.12z" />
<glyph unicode="&#xe910;" glyph-name="folder" d="M607.657 703.859l-70.33-144.582h-281.327v-361.452h562.65v506.034h-210.993zM748.32 486.988v-216.871h-421.99v216.871h210.997c26.636 0 50.989 15.47 62.901 39.958l50.892 104.623h97.2v-144.582zM256.041 595.422h210.952v72.292h-210.952z" />
<glyph unicode="&#xe911;" glyph-name="find" d="M204.8 473.338v281.862h278.987v-281.862h-278.987zM267.494 536.678h153.599v155.182h-153.599v-155.182zM540.213 473.338v281.862h278.987v-281.862h-278.987zM602.907 536.678h153.599v155.182h-153.599v-155.182zM204.8 140.8v281.866h278.987v-281.866h-278.987zM267.494 204.14h153.599v155.186h-153.599v-155.186zM819.2 185.14l-43.884 38.004c12.539 19.001 18.807 41.17 21.941 63.34 3.137 72.842-50.155 133.012-122.251 136.182-72.099 3.166-131.659-50.672-134.792-123.514s50.155-133.015 122.253-136.182c28.212 0 56.423 6.335 78.367 22.17l43.884-41.171 34.483 41.171zM599.773 295.986c3.133 38.004 34.479 69.672 72.095 66.506s68.965-34.838 65.832-72.842c-3.138-38.004-34.483-69.672-72.099-66.506s-68.965 34.838-65.827 72.842z" />
<glyph unicode="&#xe912;" glyph-name="demo" d="M76.8 728.687c0 20.611 8.335 40.377 23.177 54.949 14.838 14.577 34.963 22.763 55.949 22.763h712.147c20.985 0 41.112-8.186 55.949-22.763 14.841-14.573 23.177-34.339 23.177-54.949v-466.289c0-20.611-8.336-40.378-23.177-54.949-14.838-14.577-34.964-22.763-55.949-22.763h-158.256v77.713h158.256v466.289h-712.147v-466.289h158.256v-77.713h-158.256c-20.986 0-41.112 8.186-55.949 22.763-14.842 14.571-23.177 34.339-23.177 54.949v466.289zM511.998 309.029l227.964-248.686h-455.924l227.96 248.686z" />
<glyph unicode="&#xe913;" glyph-name="buried-point" d="M670.080 712.32v18.88c0 16.083 13.037 29.12 29.12 29.12h96c16.083 0 29.12-13.037 29.12-29.12v-96c0-16.083-13.037-29.12-29.12-29.12h-18.88v-316.16h18.88c16.083 0 29.12-13.037 29.12-29.12v-96c0-16.083-13.037-29.12-29.12-29.12h-96c-16.083 0-29.12 13.037-29.12 29.12v18.88h-316.16v-18.88c0-16.083-13.037-29.12-29.12-29.12h-96c-16.083 0-29.12 13.037-29.12 29.12v96c0 16.083 13.037 29.12 29.12 29.12h18.88v316.16h-18.88c-16.083 0-29.12 13.037-29.12 29.12v96c0 16.083 13.037 29.12 29.12 29.12h96c16.083 0 29.12-13.037 29.12-29.12v-18.88h316.16zM723.2 712.32l-5.12-5.12v-48l5.12-5.12h48l5.12 5.12v48l-5.12 5.12h-48zM252.8 712.32l-5.12-5.12v-48l5.12-5.12h48l5.12 5.12v48l-5.12 5.12h-48zM300.8 183.68l5.12 5.12v48l-5.12 5.12h-48l-5.12-5.12v-48l5.12-5.12h48zM771.2 183.68l5.12 5.12v48l-5.12 5.12h-48l-5.12-5.12v-48l5.12-5.12h48zM718.080 289.92v316.16h-18.88c-16.083 0-29.12 13.037-29.12 29.12v18.88h-316.16v-18.88c0-16.083-13.037-29.12-29.12-29.12h-18.88v-316.16h18.88c16.083 0 29.12-13.037 29.12-29.12v-18.88h316.16v18.88c0 16.083 13.037 29.12 29.12 29.12h18.88zM563.2 453.119c0-28.277-22.923-51.2-51.2-51.2s-51.2 22.923-51.2 51.2c0 28.277 22.923 51.2 51.2 51.2s51.2-22.923 51.2-51.2z" />
<glyph unicode="&#xe914;" glyph-name="behavior" d="M769.371 607.112c5.431-4.918 11.303-3.428 13.118 3.325l36.314 135.136c1.815 6.752-2.769 10.902-10.209 9.275l-149.614-32.714c-7.449-1.631-9.099-6.925-3.672-11.835l25.113-22.718c5.423-4.907 5.418-12.868-0.013-17.778l-150.674-136.323c-2.607-2.361-6.148-3.689-9.836-3.689s-7.225 1.329-9.833 3.693l-52.705 47.674c-5.435 4.914-14.233 4.924-19.655 0.015l-228.839-207.056c-2.603-2.354-4.066-5.55-4.066-8.887s1.467-6.529 4.075-8.887l27.707-25.067c2.608-2.361 6.143-3.689 9.833-3.685 3.688 0 7.224 1.333 9.831 3.693l181.442 164.184c2.608 2.365 6.144 3.693 9.833 3.693 3.692 0 7.229-1.328 9.84-3.689l52.705-47.677c5.431-4.918 14.233-4.918 19.668-0.004l198.037 179.175c2.607 2.361 6.143 3.685 9.833 3.685 3.688 0 7.224-1.329 9.831-3.689l21.937-19.85zM254.461 274.98c0 3.34 1.466 6.537 4.075 8.899 2.607 2.357 6.143 3.681 9.831 3.677h61.491c7.678 0 13.902-5.616 13.902-12.576v-121.593c0-3.336-1.462-6.538-4.075-8.895-2.607-2.361-6.143-3.681-9.827-3.677h-61.491c-7.682 0-13.906 5.616-13.906 12.572v121.593zM402.362 348.343c-0.004 3.34 1.458 6.542 4.070 8.903 2.607 2.361 6.143 3.685 9.831 3.681h61.489c3.685 0 7.225-1.325 9.833-3.685 2.604-2.361 4.070-5.562 4.070-8.899v-194.955c0.004-3.34-1.463-6.542-4.070-8.903s-6.143-3.685-9.833-3.685h-61.489c-3.688 0-7.224 1.329-9.831 3.689-2.608 2.357-4.070 5.558-4.070 8.899v194.955zM555.839 422.746c-0.004 3.34 1.463 6.542 4.070 8.903s6.143 3.685 9.831 3.681h61.482c3.688 0.004 7.229-1.321 9.837-3.681s4.070-5.562 4.070-8.903v-269.352c0-3.339-1.463-6.545-4.070-8.905s-6.149-3.685-9.837-3.681h-61.482c-3.688-0.004-7.224 1.325-9.831 3.681-2.607 2.361-4.075 5.566-4.070 8.905v269.352zM705.113 495.103c0 3.34 1.467 6.542 4.075 8.899 2.611 2.361 6.148 3.681 9.837 3.677h61.507c7.678 0 13.906-5.635 13.906-12.576v-341.72c0-3.336-1.467-6.538-4.075-8.899-2.607-2.357-6.148-3.681-9.831-3.677h-61.507c-7.683 0-13.911 5.635-13.911 12.576v341.72z" />
<glyph unicode="&#xe915;" glyph-name="data-type-list" d="M212.114 960h599.771c56.554 0 102.4-45.846 102.4-102.4v-819.2c0-56.554-45.846-102.4-102.4-102.4h-599.771c-56.554 0-102.4 45.846-102.4 102.4v819.2c0 56.554 45.846 102.4 102.4 102.4zM373.768 740.571v-65.829h416.188v65.829h-416.188zM241.375 740.571v-65.829h69.795v65.829h-69.795zM373.768 594.286v-65.829h416.188v65.829h-416.188zM241.375 594.286v-65.829h69.795v65.829h-69.795zM373.768 448v-65.829h416.188v65.829h-416.188zM241.375 448v-65.829h69.795v65.829h-69.795z" />
<glyph unicode="&#xe916;" glyph-name="add-fill" d="M149.974 85.975c199.961-199.967 524.090-199.967 724.051 0 199.967 199.961 199.967 524.090 0 724.051-199.961 199.965-524.090 199.965-724.051 0-199.965-199.961-199.965-524.201 0-724.051zM570.252 503.393l171.724 0.457c0 0 54.764-0.457 54.764-58.879 0-58.427-57.394-55.569-57.394-55.569l-168.297 0.229-1.485-171.266c0 0 0.687-57.278-58.421-57.278-59.225 0-55.452 56.708-55.452 56.708l-0.229 171.038-169.206 0.569c0 0-60.711 0-60.599 55.569 0.117 55.563 60.024 58.65 60.024 58.65l170.358-0.229-0.347 170.468c0 0-3.656 56.362 55.563 56.479 59.226 0.111 59.226-57.165 59.226-57.165v-169.782h-0.229z" />
<glyph unicode="&#xe917;" glyph-name="add" d="M571.733 388.267v-298.667h-119.467v298.667h-298.667v119.467h298.667v298.667h119.467v-298.667h298.667v-119.467z" />
<glyph unicode="&#xe918;" glyph-name="addiction" d="M384 306.794v89.194l-204.8-128 204.8-128v90.006h444.144v242.294h-76.8v-203.894l38.4 38.4h-405.744zM638.837 588.394v-89.194l204.8 128-204.8 128v-90.006h-444.144v-243.131h76.8v204.731l-38.4-38.4h405.744z" />
<glyph unicode="&#xe919;" glyph-name="alert" d="M686.080 448c0 67.865-55.015 122.88-122.88 122.88h-102.4c-67.865 0-122.88-55.015-122.88-122.88v-225.28h348.16v225.28zM256 221.403v226.597c0 113.108 91.692 204.8 204.8 204.8h102.4c113.108 0 204.8-91.692 204.8-204.8v-226.304h0.425l91.735-81.92h-691.2l87.040 81.627zM480.971 720.181v116.938h68.709v-116.938h-68.709zM216.843 716.895l53.592 43.010 71.052-88.3-53.592-43.015-71.053 88.306zM685.604 672.715l75.628 87.866 52.084-44.802-75.628-87.866-52.084 44.802z" />
<glyph unicode="&#xe91a;" glyph-name="Android" d="M716.8 589.385c0 0-7.069 121.317-89.361 184.778-3.117 2.404-6.342 4.725-9.679 6.953-27.863 18.605-63.51 30.743-109.099 30.743-195.176 0-208.139-222.473-208.139-222.473h416.278zM403.619 682.948c-9.669 0-17.507 8.378-17.507 18.713s7.838 18.713 17.507 18.713c9.669 0 17.507-8.378 17.507-18.713s-7.838-18.713-17.507-18.713zM613.703 682.948c-9.669 0-17.507 8.378-17.507 18.713s7.838 18.713 17.507 18.713c9.669 0 17.507-8.378 17.507-18.713s-7.838-18.713-17.507-18.713zM669.642 854.481c-2.711 1.565-6.033 0.888-7.892-2.331l-42.474-73.568 9.365-6.456 42.899 74.303c1.664 2.882 0.735 6.532-1.897 8.052zM361.219 854.481c-2.711-1.565-3.775-4.799-1.899-8.049l42.873-74.258 9.645 5.971-42.71 73.976c-1.656 2.869-5.276 3.88-7.909 2.36zM300.522 574.83h416.278v-378.412h-416.278v378.412zM209.411 595.622c28.277 0 51.2-22.923 51.2-51.2v-205.32c0-28.277-22.923-51.2-51.2-51.2s-51.2 22.923-51.2 51.2v205.32c0 28.277 22.923 51.2 51.2 51.2zM804.571 595.622c28.277 0 51.2-22.923 51.2-51.2v-205.32c0-28.277-22.923-51.2-51.2-51.2s-51.2 22.923-51.2 51.2v205.32c0 28.277 22.923 51.2 51.2 51.2zM570.61 196.418v-99.178c0-32.497 25.972-58.84 58.514-58.84v0c32.317 0 58.514 26.094 58.514 58.84v99.178h-117.029zM341.482 196.418v-99.178c0-32.497 25.972-58.84 58.514-58.84v0c32.317 0 58.514 26.094 58.514 58.84v99.178h-117.029z" />
<glyph unicode="&#xe91b;" glyph-name="arrow-left" d="M397.177 448l289.631 289.631-72.408 72.408-362.039-362.039 362.039-362.039 72.408 72.408-289.631 289.631z" />
<glyph unicode="&#xe91c;" glyph-name="arrow-right" d="M626.823 448l-289.631 289.631 72.408 72.408 362.039-362.039-362.039-362.039-72.408 72.408 289.631 289.631z" />
<glyph unicode="&#xe91d;" glyph-name="ascending-order" d="M382.293 642.56v-532.48h-88.747v532.48h-88.747l133.12 133.12 133.12-133.12h-88.747zM522.24 161.28h310.613v88.747h-310.613v-88.747zM522.24 338.773h221.867v88.747h-221.867v-88.747zM522.24 516.267h133.12v88.747h-133.12v-88.747z" />
<glyph unicode="&#xe91e;" glyph-name="bar-chart" d="M153.6 192.127c0-49.515 40.064-89.727 89.523-89.727h614.477v76.8h-614.477c-6.98 0-12.723 5.764-12.723 12.927v563.073h-76.8v-563.073zM345.6 448h76.8v-204.8h-76.8v204.8zM499.2 652.8h76.8v-409.6h-76.8v409.6zM652.8 550.4h76.8v-307.2h-76.8v307.2z" />
<glyph unicode="&#xe91f;" glyph-name="card" d="M102.4 679.364c0 41.897 33.75 75.836 75.495 75.836h683.256c41.675 0 75.458-33.749 75.458-75.836v-492.937c0-41.897-33.745-75.836-75.495-75.836h-683.256c-41.67 0-75.458 33.749-75.458 75.836v492.937zM557.424 224.348v17.667c0 21.16-15.357 45.504-34.314 54.454l-107.499 50.733c0 0-6.868 5.652-7.057 13.539-0.076 3.563 0 0.265 0 14.521 0 14.298 39.434 30.978 46.947 80.121 3.26 21.122 3.64 67.19 3.602 70.412-0.114 43.459-44.934 77.735-91.117 77.735-46.188 0-90.63-35.643-91.427-77.735-0.076-3.145 0.379-48.795 3.569-70.373 7.090-48.233 47.17-65.488 47.284-80.122 0.114-14.596 0-10.842 0-14.521-0.076-10.506-7.355-13.539-7.355-13.539l-107.504-50.846c-19.148-8.95-34.314-33.218-34.314-54.34v-17.705h379.187zM671.183 527.693h151.674c20.938 0 37.916 16.977 37.916 37.914 0 20.943-16.979 37.921-37.916 37.921h-151.674c-20.943 0-37.922-16.978-37.922-37.921 0-20.937 16.979-37.914 37.922-37.914zM671.183 376.020h151.674c20.938 0 37.916 16.978 37.916 37.916 0 20.943-16.979 37.92-37.916 37.92h-151.674c-20.943 0-37.922-16.977-37.922-37.92 0-20.937 16.979-37.916 37.922-37.916zM671.183 224.348h151.674c20.938 0 37.916 16.978 37.916 37.916 0 20.943-16.979 37.921-37.916 37.921h-151.674c-20.943 0-37.922-16.978-37.922-37.921 0-20.937 16.979-37.916 37.922-37.916z" />
<glyph unicode="&#xe920;" glyph-name="chart-collapse" d="M256.3 806.4h511.4c56.72 0 102.7-45.929 102.7-102.7v-511.4c0-56.72-45.929-102.7-102.7-102.7h-511.4c-56.72 0-102.7 45.929-102.7 102.7v511.4c0 56.72 45.929 102.7 102.7 102.7zM204.8 192.3c0-28.472 23.036-51.5 51.5-51.5h511.4c28.472 0 51.5 23.036 51.5 51.5v511.4c0 28.472-23.036 51.5-51.5 51.5h-511.4c-28.472 0-51.5-23.036-51.5-51.5v-511.4zM332.8 486.4h358.4v-76.8h-358.4v76.8z" />
<glyph unicode="&#xe921;" glyph-name="chart-expand" d="M473.6 486.4h-140.8v-76.8h140.8v-140.8h76.8v140.8h140.8v76.8h-140.8v140.8h-76.8v-140.8zM256.3 806.4h511.4c56.72 0 102.7-45.929 102.7-102.7v-511.4c0-56.72-45.929-102.7-102.7-102.7h-511.4c-56.72 0-102.7 45.929-102.7 102.7v511.4c0 56.72 45.929 102.7 102.7 102.7zM204.8 192.3c0-28.472 23.036-51.5 51.5-51.5h511.4c28.472 0 51.5 23.036 51.5 51.5v511.4c0 28.472-23.036 51.5-51.5 51.5h-511.4c-28.472 0-51.5-23.036-51.5-51.5v-511.4z" />
<glyph unicode="&#xe922;" glyph-name="checkbox-checked" d="M442.965 387.216l-81.459 81.459-54.306-54.306 135.765-135.765 289.631 289.631-54.306 54.306-235.325-235.325zM256.3 806.4h511.4c56.72 0 102.7-45.929 102.7-102.7v-511.4c0-56.72-45.929-102.7-102.7-102.7h-511.4c-56.72 0-102.7 45.929-102.7 102.7v511.4c0 56.72 45.929 102.7 102.7 102.7zM230.4 192.3c0-14.332 11.572-25.9 25.9-25.9h511.4c14.332 0 25.9 11.572 25.9 25.9v511.4c0 14.332-11.572 25.9-25.9 25.9h-511.4c-14.332 0-25.9-11.572-25.9-25.9v-511.4z" />
<glyph unicode="&#xe923;" glyph-name="checkbox-unchecked" d="M256.3 806.4h511.4c56.72 0 102.7-45.929 102.7-102.7v-511.4c0-56.72-45.929-102.7-102.7-102.7h-511.4c-56.72 0-102.7 45.929-102.7 102.7v511.4c0 56.72 45.929 102.7 102.7 102.7zM230.4 192.3c0-14.332 11.572-25.9 25.9-25.9h511.4c14.332 0 25.9 11.572 25.9 25.9v511.4c0 14.332-11.572 25.9-25.9 25.9h-511.4c-14.332 0-25.9-11.572-25.9-25.9v-511.4z" />
<glyph unicode="&#xe924;" glyph-name="cheveron-right" d="M386.343 140.856c-7.15 0-14.3 2.737-19.774 8.155-10.892 10.892-10.892 28.599 0 39.492l259.518 259.518-259.518 259.518c-10.892 10.892-10.892 28.599 0 39.492s28.599 10.892 39.492 0l279.292-279.292c10.892-10.892 10.892-28.599 0-39.492l-279.292-279.292c-5.474-5.474-12.624-8.155-19.774-8.155l0.056 0.056z" />
<glyph unicode="&#xe925;" glyph-name="click" d="M382.767 335.348c-69.316 41.85-105.812 120.424-92.977 200.175 17.295 107.466 119.097 180.881 226.94 163.642 52.242-8.349 98.092-36.47 129.108-79.185 31.014-42.715 43.481-75.098 35.103-127.156l83.428-47.014c11.952 74.267-5.833 162.594-50.078 223.532s-109.655 101.054-184.182 112.964c-74.523 11.907-149.244-5.814-210.391-49.906s-101.406-109.276-113.357-183.543c-9.080-56.413-0.951-113.439 23.503-164.908 23.857-50.21 61.589-91.92 109.12-120.616 31.181-18.827 68.36-31.309 104.621-37.104l-7.496 83.139c-25.452 4.067-31.526 12.809-53.342 25.981zM692.378 276.121c46.75 18.987 123.784 40.618 123.784 40.618l-349.184 228.54 68.59-400.447c0 0 50.701 52.544 92.567 89.209l92.016-124.025c3.725-5.021 11.769-5.39 17.967-0.823l39.28 28.94c6.197 4.566 8.203 12.339 4.476 17.362l-89.496 120.626z" />
<glyph unicode="&#xe926;" glyph-name="collapse-right" d="M569.412 448l-162.917-162.917 54.306-54.306 217.223 217.223-217.223 217.223-54.306-54.306 162.917-162.917z" />
<glyph unicode="&#xe927;" glyph-name="collapse-up-single" d="M235.886 314.758l280.455 176.724 271.81-178.468c24.358-15.266 57.181-9.057 73.344 13.947 16.209 22.92 9.68 54.046-14.633 69.312l-301.121 196.88c-17.739 11.226-40.882 11.269-58.711 0.085l-309.765-195.137c-24.403-15.308-30.977-46.435-14.813-69.397 10.265-14.5 27.059-22.282 44.169-22.282 10.13 0 20.261 2.636 29.266 8.334z" />
<glyph unicode="&#xe928;" glyph-name="collapse-up" d="M524.423 492.988l162.917-162.917 54.306 54.306-217.223 217.223-217.223-217.223 54.306-54.306 162.917 162.917z" />
<glyph unicode="&#xe929;" glyph-name="dashboard-share" d="M661.39 257.28l-263.652 153.458c1.849 8.505 3.328 17.010 3.328 25.884s-1.479 17.38-3.328 25.884l260.693 151.979c19.968-18.489 46.222-29.952 75.435-29.952 61.383 0 110.933 49.55 110.933 110.933s-49.55 110.933-110.933 110.933c-61.383 0-110.933-49.55-110.933-110.933 0-8.875 1.479-17.38 3.328-25.884l-260.693-151.979c-19.968 18.489-46.222 29.952-75.435 29.952-61.383 0-110.933-49.55-110.933-110.933s49.55-110.933 110.933-110.933c29.212 0 55.467 11.463 75.435 29.952l263.282-153.828c-1.849-7.765-2.958-15.9-2.958-24.036 0-59.534 48.441-107.975 107.975-107.975s107.975 48.441 107.975 107.975c0 59.534-48.441 107.975-107.975 107.975-28.103 0-53.248-11.093-72.476-28.473z" />
<glyph unicode="&#xe92a;" glyph-name="dashboard" d="M548.154 509.138c-5.129 34.921-55.51 34.921-60.639 0l-57.261-280.008c-1.487-10.154-1.873-20.392-1.176-30.489 1.562-22.603 10.116-40.37 22.631-53.412 35.457-36.935 103.004-35.57 136.024 4.159 10.455 12.581 17.456 28.983 18.858 49.253 0.696 10.097 0.311 20.335-1.176 30.489l-57.261 280.008zM512 780.8c-211.738 0-384-172.262-384-384 0-103.85 40.802-201.123 114.87-273.911 6.418-6.305 14.755-9.448 23.083-9.448 8.479 0 16.957 3.256 23.403 9.749l66.633 67.254c-17.578 13.315-33.359 28.842-47.023 46.129l-42.157-42.534c-40.266 48.481-64.808 107.125-71.197 169.825h59.839c-1.364 10.793-1.364 55.078 0 65.871h-59.82c6.521 63.067 31.477 120.751 69.466 167.463l42.402-42.045c13.504 17.418 29.171 33.058 46.627 46.524l-42.44 42.092c46.693 37.951 104.34 62.879 167.378 69.4v-59.83c10.793 1.374 21.766 2.164 32.936 2.164 11.16 0 22.142-0.79 32.936-2.164v59.83c63.067-6.521 120.751-31.486 167.463-69.466l-42.026-42.412c17.418-13.513 33.058-29.181 46.524-46.637l42.073 42.459c37.951-46.703 62.879-104.349 69.4-167.378h-59.83c1.374-10.793 1.374-55.078 0-65.871h59.839c-6.22-60.695-29.501-117.777-67.612-165.412l-42.534 42.186c-13.325-17.569-28.861-33.34-46.157-46.994l66.991-66.436c6.22-6.164 14.633-9.401 23.394-9.542 8.761 0.047 17.136 3.585 23.281 9.824 71.103 72.27 110.259 167.915 110.259 269.309 0 211.738-172.262 384-384 384v0 0z" />
<glyph unicode="&#xe92b;" glyph-name="data-stream" d="M822.613 211.256c0-12.741-10.736-23.195-24.22-23.195h-572.786c-13.312 0-24.22 10.672-24.22 23.195v236.744h-47.787v-236.744c0-38.742 32.42-70.456 72.007-70.456h572.786c39.712 0 72.007 31.448 72.007 70.456v236.744h-47.787v-236.744zM640 755.2v-256h128l-256-256-256 256h128v256h256zM640 448h-51.2v307.2l51.2-51.2h-256l51.2 51.2v-307.2h-128l-36.204 36.204 6.212 14.996h51.2l219.796-219.796h-72.408l219.796 219.796h51.2l6.212-14.996-36.204-36.204h-76.8z" />
<glyph unicode="&#xe92c;" glyph-name="data-type-dict" d="M753.6 134.4h-411.6c-32.478 0-58.8 30.086-58.8 67.2s26.322 67.2 58.8 67.2h372.4v537.6h-392c-43.119 0-78.4-40.32-78.4-89.6v-537.6c0-49.28 35.281-89.6 78.4-89.6h470.4v627.2h-39.2v-582.4zM342.034 224c-0.011-0.001-0.023 0-0.034 0-10.824 0-19.6-10.028-19.6-22.4s8.776-22.4 19.6-22.4c0.011 0 0.023 0.001 0.034 0.001v-0.001h372.333v44.8h-372.333z" />
<glyph unicode="&#xe92d;" glyph-name="date-limit" d="M512 678.4v-172.8h-230.4v-115.2h230.4v-172.8l230.4 230.4-230.4 230.4zM793.6 192h76.8v512h-76.8v-512zM153.6 192h76.8v512h-76.8v-512z" />
<glyph unicode="&#xe92e;" glyph-name="date-picker" d="M492.089 499.2h-179.2v-179.2h179.2v179.2zM790.756 777.956h-39.822v79.644h-79.644v-79.644h-318.578v79.644h-79.644v-79.644h-39.822c-44.203 0-79.246-35.84-79.246-79.644l-0.398-557.511c0-43.804 35.442-79.644 79.644-79.644h557.511c43.804 0 79.644 35.84 79.644 79.644v557.511c0 43.804-35.84 79.644-79.644 79.644v0zM233.244 140.8v438.044h557.511v-438.044h-557.511z" />
<glyph unicode="&#xe92f;" glyph-name="delete" d="M705.56 581.322v-377.149c4.851-19.094-9.696-33.418-29.089-38.189h-300.614c-19.393 0-33.94 14.323-38.786 28.642v386.696h-67.879v-415.337c-4.851-38.194 19.392-71.612 58.183-76.383h378.186c38.791 0 72.731 28.642 72.731 71.607v420.114h-72.731zM414.647 242.368v300.761h72.731v-300.761h-72.731zM666.775 691.123h145.457v-76.383h-581.832v76.383h145.457v76.383c0 23.871 0 38.194 38.79 38.194h213.337c38.791 0 38.791-9.547 38.791-38.194v-76.383zM448.587 691.123h145.457v38.194h-145.457v-38.194zM560.104 242.368v300.761h72.731v-300.761h-72.731z" />
<glyph unicode="&#xe930;" glyph-name="descending-order" d="M382.293 232.96v532.48h-88.747v-532.48h-88.747l133.12-133.12 133.12 133.12h-88.747zM522.24 714.24h310.613v-88.747h-310.613v88.747zM522.24 536.747h221.867v-88.747h-221.867v88.747zM522.24 359.253h133.12v-88.747h-133.12v88.747z" />
<glyph unicode="&#xe931;" glyph-name="distribute" d="M360.504 270.904h-155.704v-155.704h155.704v155.704zM844.8 755.2h-155.704v-155.704h155.704v155.704zM607.859 518.259h-155.704v-155.704h155.704v155.704zM360.504 513.052h-155.704v-155.704h155.704v155.704zM360.504 755.2h-155.704v-155.704h155.704v155.704z" />
<glyph unicode="&#xe932;" glyph-name="download" d="M819.2 563.451h-160.914v242.949h-241.371v-242.949h-160.914l281.6-283.441 281.6 283.441zM256 199.027v-80.983h563.2v80.983h-563.2z" />
<glyph unicode="&#xe933;" glyph-name="drag-left" d="M303.45 106.5c-49.771 0-90.117-38.166-90.117-85.248 0-47.084 40.346-85.248 90.117-85.248 49.773 0 90.116 38.164 90.116 85.248 0 47.082-40.344 85.248-90.116 85.248zM303.45 532.751c-49.771 0-90.117-38.166-90.117-85.248 0-47.084 40.346-85.248 90.117-85.248 49.773 0 90.116 38.164 90.116 85.248 0 47.082-40.344 85.248-90.116 85.248zM303.45 959.001c-49.771 0-90.117-38.166-90.117-85.248 0-47.084 40.346-85.248 90.117-85.248 49.773 0 90.116 38.164 90.116 85.248 0 47.082-40.344 85.248-90.116 85.248zM663.925 106.5c-49.771 0-90.117-38.166-90.117-85.248 0-47.084 40.346-85.248 90.117-85.248s90.116 38.164 90.116 85.248c0 47.082-40.346 85.248-90.116 85.248zM663.925 532.751c-49.771 0-90.117-38.166-90.117-85.248 0-47.084 40.346-85.248 90.117-85.248s90.116 38.164 90.116 85.248c0 47.082-40.346 85.248-90.116 85.248zM663.925 959.001c-49.771 0-90.117-38.166-90.117-85.248 0-47.084 40.346-85.248 90.117-85.248s90.116 38.164 90.116 85.248c0 47.082-40.346 85.248-90.116 85.248z" />
<glyph unicode="&#xe934;" glyph-name="drag-top" d="M171.094 613.913c0 45.942-35.23 83.184-78.691 83.184s-78.691-37.242-78.691-83.184c0-45.944 35.229-83.184 78.691-83.184 43.461 0 78.691 37.24 78.691 83.184zM564.556 613.913c0 45.942-35.23 83.184-78.691 83.184s-78.691-37.242-78.691-83.184c0-45.944 35.229-83.184 78.691-83.184s78.691 37.24 78.691 83.184zM958.018 613.913c0 45.942-35.23 83.184-78.691 83.184s-78.691-37.242-78.691-83.184c0-45.944 35.229-83.184 78.691-83.184s78.691 37.24 78.691 83.184zM171.094 281.167c0 45.942-35.23 83.184-78.691 83.184s-78.691-37.242-78.691-83.184 35.229-83.184 78.691-83.184c43.461 0 78.691 37.242 78.691 83.184zM564.556 281.167c0 45.942-35.23 83.184-78.691 83.184s-78.691-37.242-78.691-83.184 35.229-83.184 78.691-83.184c43.461 0 78.691 37.242 78.691 83.184zM958.018 281.167c0 45.942-35.23 83.184-78.691 83.184s-78.691-37.242-78.691-83.184 35.229-83.184 78.691-83.184c43.461 0 78.691 37.242 78.691 83.184z" />
<glyph unicode="&#xe935;" glyph-name="edit" d="M153.6 238.954v-149.354h149.354l440.694 440.694-149.354 149.354-440.694-440.694zM858.75 645.396c15.533 15.533 15.533 40.823 0 56.356l-92.998 92.998c-15.533 15.533-40.823 15.533-56.356 0l-72.885-72.885 149.354-149.354 72.885 72.885z" />
<glyph unicode="&#xe936;" glyph-name="envelope" d="M512.046 424.504l-358.446 139.298v-356.399c0-8.47 6.686-15.404 14.903-15.404h687.023c8.217 0 14.874 6.934 14.874 15.404v356.399l-358.354-139.298zM855.526 704h-687.023c-8.217 0-14.903-6.932-14.903-15.403v-53.692l358.446-139.296 358.353 139.297v53.692c0 8.47-6.656 15.402-14.873 15.402z" />
<glyph unicode="&#xe937;" glyph-name="error" d="M512 38.4c-56.452 0-109.62 10.667-159.508 32s-93.374 50.543-130.462 87.631c-37.087 37.087-66.297 80.574-87.631 130.462s-32 103.056-32 159.508c0 56.452 10.667 109.62 32 159.508s50.543 93.374 87.631 130.462c37.087 37.087 80.574 66.297 130.462 87.631s103.056 32 159.508 32c56.452 0 109.62-10.667 159.508-32s93.374-50.543 130.462-87.631c37.087-37.087 66.297-80.574 87.631-130.462s32-103.056 32-159.508c0-56.452-10.667-109.62-32-159.508s-50.543-93.374-87.631-130.462c-37.087-37.087-80.574-66.297-130.462-87.631s-103.056-32-159.508-32v0zM700.062 567.138c3.938 3.939 5.908 8.698 5.908 14.277s-1.969 10.338-5.908 14.277l-42.339 41.354c-3.938 3.938-8.533 5.908-13.785 5.908s-9.846-1.969-13.785-5.908l-118.154-118.154-119.138 118.154c-3.939 3.938-8.533 5.908-13.785 5.908s-9.846-1.969-13.784-5.908l-42.339-41.354c-3.282-3.938-4.923-8.697-4.923-14.277s1.641-10.338 4.923-14.277l119.138-118.154-119.138-118.154c-3.282-3.938-4.923-8.697-4.923-14.277s1.641-10.338 4.923-14.277l42.339-41.354c3.938-3.938 8.533-5.908 13.784-5.908s9.846 1.969 13.785 5.908l119.138 118.154 118.154-118.154c3.938-3.938 8.533-5.908 13.785-5.908s9.846 1.969 13.785 5.908l42.339 41.354c3.938 3.938 5.908 8.697 5.908 14.277s-1.969 10.338-5.908 14.277l-119.139 118.154 119.139 118.154z" />
<glyph unicode="&#xe938;" glyph-name="event-direction" d="M665.6 627.2v102.4l204.8-204.8-204.8-204.8v102.4h-71.381l-133.419 131.206v73.594h204.8zM358.4 473.6v102.4l204.8-204.8-204.8-204.8v102.4h-204.8v204.8h204.8z" />
<glyph unicode="&#xe939;" glyph-name="event-property" d="M87.040 393.6v-134.4c0-37.128 30.072-67.2 67.2-67.2h134.4v67.2h-134.4v134.4h-67.2zM288.64 662.4v67.2h-134.4c-37.128 0-67.2-30.072-67.2-67.2v-134.4h67.2v134.4h134.4zM423.040 729.6v-67.2h134.4v-134.4h67.2v134.4c0 37.128-30.072 67.2-67.2 67.2h-134.4zM423.040 259.2v-67.2h134.4c37.128 0 67.2 30.072 67.2 67.2v134.4h-67.2v-134.4h-134.4zM245.549 584.967l234.328-129.463-121.527-113.326zM701.44 509.441h152.763v76.8h-152.763v-76.8zM701.44 355.841h203.963v76.8h-203.963v-76.8zM701.44 202.241h255.163v76.8h-255.163v-76.8z" />
<glyph unicode="&#xe93a;" glyph-name="event" d="M153.6 358.4v-179.2c0-49.504 40.096-89.6 89.6-89.6h179.2v89.6h-179.2v179.2h-89.6zM422.4 716.8v89.6h-179.2c-49.504 0-89.6-40.096-89.6-89.6v-179.2h89.6v179.2h179.2zM601.6 806.4v-89.6h179.2v-179.2h89.6v179.2c0 49.504-40.096 89.6-89.6 89.6h-179.2zM601.6 179.2v-89.6h179.2c49.504 0 89.6 40.096 89.6 89.6v179.2h-89.6v-179.2h-179.2zM384.847 606.657l288.75-159.53-149.751-139.645z" />
<glyph unicode="&#xe93b;" glyph-name="expand-all" d="M153.6 704v-102.4h716.8v102.4h-716.8zM153.6 550.4v-358.4h716.8v358.4h-716.8zM230.4 473.6h563.2v-204.8h-563.2v204.8z" />
<glyph unicode="&#xe93c;" glyph-name="expand-down-single" d="M235.886 540.294l280.455-176.724 271.81 178.468c24.358 15.266 57.181 9.057 73.344-13.947 16.209-22.92 9.68-54.046-14.633-69.312l-301.121-196.88c-17.739-11.226-40.882-11.269-58.711-0.085l-309.765 195.137c-24.403 15.308-30.977 46.435-14.813 69.397 10.265 14.5 27.059 22.282 44.169 22.282 10.13 0 20.261-2.636 29.266-8.334z" />
<glyph unicode="&#xe93d;" glyph-name="expand-down" d="M512 390.588l-162.917 162.917-54.306-54.306 217.223-217.223 217.223 217.223-54.306 54.306-162.917-162.917z" />
<glyph unicode="&#xe93e;" glyph-name="export" d="M801.498 357.858v-105.001c0-29.448-23.287-53.325-52.018-53.325h-416.494c-28.732 0-52.018 23.878-52.018 53.325v105.001h-76.168v-130.39c0-58.89 51.608-106.646 109.067-106.646h463.761c57.459 0 104.035 47.756 104.035 106.646v130.39h-80.166zM722.436 565.657l-101.538 0.834-0.815-239.095h-156.966v239.095h-101.547l180.431 239.909 180.435-240.743z" />
<glyph unicode="&#xe93f;" glyph-name="failed" d="M992 448c0 265.097-214.903 480-480 480s-480-214.903-480-480c0-265.097 214.903-480 480-480s480 214.903 480 480zM124.903 448c0 213.788 173.309 387.097 387.097 387.097s387.097-173.309 387.097-387.097c0-213.788-173.309-387.097-387.097-387.097s-387.097 173.309-387.097 387.097zM464 304h96v-96h-96v96zM464 688h96v-320h-96v320z" />
<glyph unicode="&#xe940;" glyph-name="falling" d="M512 294.4l179.2 307.2h-358.4z" />
<glyph unicode="&#xe941;" glyph-name="fav" d="M870.4 546.918l-257.69 22.221-100.71 237.261-100.71-237.619-257.69-21.862 195.686-169.523-58.778-251.955 221.491 133.683 221.491-133.683-58.419 251.955 195.328 169.523zM511.994 321.96l-139.24-84.063 37.032 158.497-122.946 106.652 162.2 14.072 62.954 149.239 63.325-149.609 162.2-14.072-122.946-106.652 37.032-158.497-139.611 84.433z" />
<glyph unicode="&#xe942;" glyph-name="faved" d="M870.4 546.918l-257.69 22.221-100.71 237.261-100.71-237.619-257.69-21.862 195.686-169.523-58.778-251.955 221.491 133.683 221.491-133.683-58.419 251.955z" />
<glyph unicode="&#xe943;" glyph-name="filter-set" d="M640.14 9.279h-96.373v407.952l276.983 338.96h-628.138l254.776-340.089v-296.686h-96.379v264.59l-351.010 468.564h1024l-383.86-469.692z" />
<glyph unicode="&#xe944;" glyph-name="finish" d="M339.117 228.848l-226.909 226.909-75.636-75.636 302.545-302.545 648.312 648.312-75.636 75.636z" />
<glyph unicode="&#xe945;" glyph-name="fold-all" d="M153.6 704h716.8v-102.4h-716.8v102.4zM153.6 499.2h716.8v-102.4h-716.8v102.4zM153.6 294.4h716.8v-102.4h-716.8v102.4z" />
<glyph unicode="&#xe946;" glyph-name="help" d="M512 857.6c-226.099 0-409.6-183.501-409.6-409.6s183.501-409.6 409.6-409.6c226.099 0 409.6 183.501 409.6 409.6s-183.501 409.6-409.6 409.6v0zM552.96 161.28h-81.92v81.92h81.92v-81.92zM637.747 478.72l-36.864-37.683c-29.491-29.901-47.923-54.477-47.923-115.917h-81.92v20.48c0 45.056 18.432 86.016 47.923 115.917l50.79 51.61c15.155 14.746 24.166 35.226 24.166 57.754 0 45.056-36.864 81.92-81.92 81.92s-81.92-36.864-81.92-81.92h-81.92c0 90.522 73.318 163.84 163.84 163.84s163.84-73.318 163.84-163.84c0-36.045-14.746-68.813-38.093-92.16v0z" />
<glyph unicode="&#xe947;" glyph-name="hidden" d="M153.765 553.536c-11.673 13.593-10.111 35.21 3.318 47.094 13.502 11.854 35.025 10.264 46.455-2.967-7.156 7.258 14.004-15.282 26.234-27.181 20.443-19.889 43.334-39.722 68.204-58.228 71.193-52.978 144.046-84.668 214.146-84.668 72.361 0 145.413 31.438 215.392 83.999 24.43 18.35 46.735 38.011 66.527 57.739 11.8 11.761 29.644 31.345 24.789 26.36 11.708 15.087 31.921 18.148 47.101 6.198 13.187-11.777 16.116-31.558 6.414-46.275-4.46-5.524-12.034-13.979-22.92-24.862-16.267-16.263-34.773-32.641-55.328-48.307l59.664-62.707c11.729-13.66 11.235-33.697-1.644-46.719-6.435-6.506-14.749-10.049-23.381-10.049-8.629 0-16.948 3.544-23.474 10.148l-64.671 67.805c-33.206-22.644-69.178-41.723-106.195-55.599l24.733-84.024c4.938-18.414-5.162-36.827-19.867-39.812-3.191-3.239-5.578-3.586-11.851-3.586-14.415 0-28.614 10.766-31.7 24.911l-24.921 84.15c-20.219-3.495-39.869-5.368-58.669-5.368-18.794 0-38.438 1.872-58.651 5.365l-24.958-84.913c-3.307-15.029-16.547-25.441-31.82-25.441l-9.72 0.276c-18.121 4.996-28.244 23.485-23.251 41.993l24.863 85.147c-36.946 13.848-72.83 32.89-106.211 55.609l-66.045-69.206c-6.432-6.504-14.75-10.043-23.38-10.043-9.543 0-18.367 4.197-20.472 9.714-13.722 12.245-14.776 34.15-1.731 47.344l59.611 62.635c-36.381 29.775-70.363 63.908-76.592 73.465z" />
<glyph unicode="&#xe948;" glyph-name="info" d="M512 38.4c-56.452 0-109.62 10.667-159.508 32s-93.374 50.543-130.462 87.631c-37.087 37.087-66.297 80.574-87.631 130.462s-32 103.056-32 159.508c0 56.452 10.667 109.62 32 159.508s50.543 93.374 87.631 130.462c37.087 37.087 80.574 66.297 130.462 87.631s103.056 32 159.508 32c56.452 0 109.62-10.667 159.508-32s93.374-50.543 130.462-87.631c37.087-37.087 66.297-80.574 87.631-130.462s32-103.056 32-159.508c0-56.452-10.667-109.62-32-159.508s-50.543-93.374-87.631-130.462c-37.087-37.087-80.574-66.297-130.462-87.631s-103.056-32-159.508-32v0zM512 682.057c-16.254 0-30.070-5.689-41.448-17.067s-17.067-25.194-17.067-41.448c0-16.254 5.689-30.070 17.067-41.448s25.194-17.067 41.448-17.067c16.254 0 30.070 5.689 41.448 17.067s17.067 25.194 17.067 41.448c0 16.254-5.689 30.070-17.067 41.448s-25.194 17.067-41.448 17.067v0zM559.262 461.7c0 12.448-4.595 23.029-13.785 31.743s-20.349 13.071-33.477 13.071c-13.128 0-24.287-4.357-33.477-13.071s-13.785-19.295-13.785-31.743v-209.132c0-12.448 4.595-23.029 13.785-31.743s20.349-13.071 33.477-13.071c13.128 0 24.287 4.357 33.477 13.071s13.785 19.295 13.785 31.743v209.132z" />
<glyph unicode="&#xe949;" glyph-name="interval" d="M559.114 419.176v-98.607l147.446 147.911-147.446 147.911v-98.607h-256.465v-98.607h256.465zM860.16 704h-92.16v-512h92.16v512zM245.76 704h-92.16v-512h92.16v512z" />
<glyph unicode="&#xe94a;" glyph-name="iOS" d="M529.35 631.4c13.5 0 35.55 5.25 66.15 15.75s57.15 15.75 79.65 15.75c36.9 0 69.75-9.9 98.55-29.7 16.2-11.4 32.25-26.85 48.15-46.35-24-20.4-41.55-38.55-52.65-54.45-20.1-28.8-30.15-60.6-30.15-95.4 0-38.1 10.65-72.45 31.95-103.050s45.6-49.95 72.9-58.050c-11.4-36.9-30.3-75.45-56.7-115.65-39.9-60.3-79.5-90.45-118.8-90.45-15.6 0-37.125 4.95-64.575 14.85s-50.625 14.85-69.525 14.85c-18.9 0-40.875-5.175-65.925-15.525s-45.375-15.525-60.975-15.525c-47.1 0-93.3 39.9-138.6 119.7-45.3 78.9-67.95 156.3-67.95 232.2 0 70.5 17.325 127.95 51.975 172.35s78.375 66.6 131.175 66.6c22.5 0 49.725-4.65 81.675-13.95s53.175-13.95 63.675-13.95v0zM670.2 817.25c0-19.2-4.5-40.2-13.5-63s-23.25-43.95-42.75-63.45c-16.8-16.5-33.45-27.6-49.95-33.3-10.5-3.3-26.4-5.85-47.7-7.65 0.6 45.6 12.525 85.050 35.775 118.35s61.725 56.1 115.425 68.4c1.2-3.9 1.95-7.35 2.25-10.35s0.45-6 0.45-9v0z" />
<glyph unicode="&#xe94b;" glyph-name="line-chart" d="M153.6 192.127c0-49.515 40.064-89.727 89.523-89.727h614.477v76.8h-614.477c-6.98 0-12.723 5.764-12.723 12.927v563.073h-76.8v-563.073zM487.137 461.824l-126.050-200.625-65.030 40.857 148.747 236.751 174.47-137.112-56.562-10.282 182.4 300.8 65.67-39.821-204.878-337.868-175.010 137.537 56.242 9.763z" />
<glyph unicode="&#xe94c;" glyph-name="link-blank" d="M639.246 652.8h-339.012v102.4h518.965v-512h-102.4v342.338l-430.652-430.652-72.408 72.408 425.506 425.506z" />
<glyph unicode="&#xe94d;" glyph-name="list" d="M307.2 704h512v-102.4h-512v102.4zM307.2 499.2h512v-102.4h-512v102.4zM307.2 294.4h512v-102.4h-512v102.4zM153.6 704h102.4v-102.4h-102.4v102.4zM153.6 499.2h102.4v-102.4h-102.4v102.4zM153.6 294.4h102.4v-102.4h-102.4v102.4z" />
<glyph unicode="&#xe94e;" glyph-name="location" d="M871.512 806.4l-764.312-374.4-4.8-39.575 271.581-88.488 82.087-273.6 41.113 4.8z" />
<glyph unicode="&#xe94f;" glyph-name="menu" d="M153.6 755.2v-89.6h716.8v89.6h-716.8zM153.6 217.6v-89.6h716.8v89.6h-716.8zM153.6 486.4v-89.6h716.8v89.6h-716.8z" />
<glyph unicode="&#xe950;" glyph-name="meta" d="M230.4 755.2v-614.4h563.2v614.4h-563.2zM281.6 704h460.8v-512h-460.8v512zM435.2 601.6h153.6v-51.2h-153.6v51.2zM435.2 473.6h153.6v-51.2h-153.6v51.2zM435.2 345.6h153.6v-51.2h-153.6v51.2z" />
<glyph unicode="&#xe951;" glyph-name="mobile" d="M646.4 870.4h-307.2c-52.992 0-96-43.008-96-96v-652.8c0-52.992 43.008-96 96-96h307.2c52.992 0 96 43.008 96 96v652.8c0 52.992-43.008 96-96 96v0zM492.8 64c-31.872 0-57.6 25.728-57.6 57.6s25.728 57.6 57.6 57.6c31.872 0 57.6-25.728 57.6-57.6s-25.728-57.6-57.6-57.6v0zM665.6 217.6h-345.6v537.6h345.6v-537.6z" />
<glyph unicode="&#xe952;" glyph-name="more" d="M786.838 378.368c46.14 0 83.562 38.492 83.562 86.024 0 47.515-37.406 86.008-83.562 86.008s-83.563-38.492-83.563-86.008c0.016-47.532 37.422-86.024 83.563-86.024zM520.337 378.368c46.14 0 83.562 38.492 83.562 86.024 0 47.515-37.406 86.008-83.562 86.008s-83.563-38.492-83.563-86.008c0-47.532 37.406-86.024 83.563-86.024zM237.163 378.368c46.156 0 83.562 38.492 83.562 86.024 0 47.515-37.406 86.008-83.562 86.008s-83.563-38.492-83.563-86.008c0-47.532 37.422-86.024 83.563-86.024z" />
<glyph unicode="&#xe953;" glyph-name="nav-event-analysis" d="M153.6 217.727c0-49.515 40.064-89.727 89.523-89.727h614.477v76.8h-614.477c-6.98 0-12.723 5.764-12.723 12.927v563.073h-76.8v-563.073zM345.6 473.6h76.8v-204.8h-76.8v204.8zM499.2 678.4h76.8v-409.6h-76.8v409.6zM652.8 576h76.8v-307.2h-76.8v307.2z" />
<glyph unicode="&#xe954;" glyph-name="nav-funnel" d="M828.802 704l-30.151 62.18-230.349-292.059v-259.081l20.724 34.090-176.805-91.677 56.076-34.090v350.781l-230.87 292.069-30.125-62.213h621.5zM128 780.8l271.771-343.813-8.275 23.813v-400.603l253.605 131.499v269.104l-8.249-23.78 271.142 343.78h-779.995z" />
<glyph unicode="&#xe955;" glyph-name="nav-retention" d="M204.8 704h179.2v-153.6h-179.2v153.6zM435.2 704h179.2v-153.6h-179.2v153.6zM665.6 704h179.2v-153.6h-179.2v153.6zM204.8 499.2h179.2v-153.6h-179.2v153.6zM435.2 499.2h179.2v-153.6h-179.2v153.6zM204.8 294.4h179.2v-153.6h-179.2v153.6z" />
<glyph unicode="&#xe956;" glyph-name="new-window" d="M647.253 248.787c6.827 13.73 10.667 29.212 10.667 45.593v307.239c0 56.944-45.755 102.38-102.197 102.38h-92.566c-56.447 0-102.197-45.837-102.197-102.38v-307.239c0-56.944 45.755-102.38 102.197-102.38h92.566c11.895 0 23.315 2.035 33.931 5.777l43.162-55.066 60.445 47.378-46.008 58.698zM533.987 268.8h-70.829c-14.18 0-25.397 11.206-25.397 25.58v307.239c0 14.161 11.398 25.58 25.397 25.58h92.566c14.18 0 25.397-11.206 25.397-25.58v-268.459l-33.484 42.719-60.445-47.378 46.795-59.702zM737.28 284.034c0-49.416 40.127-89.474 89.533-89.474h179.267v76.8h-179.267c-7.020 0-12.733 5.703-12.733 12.674v409.726h-76.8v-409.726zM99.702 691.2c-49.569 0-89.463-40.225-89.463-90.065v-89.464c0-49.846 39.995-90.065 90.080-90.065h101.441c7.577 0 13.28-5.65 13.28-13.12v-124.005c0-7.383-5.677-13.12-12.663-13.12h-169.098v-76.8h169.098c49.586 0 89.463 40.305 89.463 89.92v124.005c0 50.048-40.248 89.92-90.080 89.92h-101.441c-7.573 0-13.28 5.739-13.28 13.265v89.464c0 7.566 5.652 13.265 12.663 13.265h169.098v76.8h-169.098z" />
<glyph unicode="&#xe957;" glyph-name="new" d="M810.667 430.933h-256v-256h-85.333v256h-256v85.333h256v256h85.333v-256h256z" />
<glyph unicode="&#xe958;" glyph-name="num" d="M102.4 703.873v-511.747c0-27.992 22.943-51.327 51.245-51.327h716.711c28.48 0 51.245 22.98 51.245 51.327v511.747c0 27.992-22.943 51.327-51.245 51.327h-716.711c-28.48 0-51.245-22.98-51.245-51.327zM230.4 601.6h51.2v-307.2h-51.2v307.2zM332.8 601.6h153.6v-51.2h-153.6v51.2zM332.8 473.6h153.6v-51.2h-153.6v51.2zM384 345.6h153.6v-51.2h-153.6v51.2zM486.4 601.6h51.2v-179.2h-51.2v179.2zM332.8 422.4h51.2v-128h-51.2v128zM588.8 601.6h153.6v-51.2h-153.6v51.2zM588.8 473.6h153.6v-51.2h-153.6v51.2zM588.8 345.6h153.6v-51.2h-153.6v51.2zM742.4 601.6h51.2v-153.6h-51.2v153.6zM742.4 448h51.2v-153.6h-51.2v153.6z" />
<glyph unicode="&#xe959;" glyph-name="pause" d="M307.2 755.2h102.4v-614.4h-102.4v614.4zM614.4 755.2h102.4v-614.4h-102.4v614.4z" />
<glyph unicode="&#xe95a;" glyph-name="percentage" d="M671.431 824.484l75.379-43.52-409.6-709.448-75.379 43.52 409.6 709.448zM460.8 652.8c0 84.831-68.769 153.6-153.6 153.6s-153.6-68.769-153.6-153.6c0-84.831 68.769-153.6 153.6-153.6s153.6 68.769 153.6 153.6zM237.382 652.8c0 38.56 31.259 69.818 69.818 69.818s69.818-31.259 69.818-69.818c0-38.56-31.259-69.818-69.818-69.818s-69.818 31.259-69.818 69.818zM855.040 243.2c0 84.831-68.769 153.6-153.6 153.6s-153.6-68.769-153.6-153.6c0-84.831 68.769-153.6 153.6-153.6s153.6 68.769 153.6 153.6zM631.622 243.2c0 38.56 31.259 69.818 69.818 69.818s69.818-31.259 69.818-69.818c0-38.56-31.259-69.818-69.818-69.818s-69.818 31.259-69.818 69.818z" />
<glyph unicode="&#xe95b;" glyph-name="pie-chart" d="M478.72 780.8v-665.6c-168.73 16.64-299.52 159.411-299.52 332.8s130.79 316.16 299.52 332.8v0zM546.278 780.8v-299.187h298.522c-15.642 157.747-141.107 283.546-298.522 299.187v0zM546.278 414.387v-299.187c157.747 15.642 282.88 141.44 298.522 299.187h-298.522z" />
<glyph unicode="&#xe95c;" glyph-name="play" d="M307.2 140.8v614.4l409.6-307.2z" />
<glyph unicode="&#xe95d;" glyph-name="profiling" d="M716.8 618.732c0 56.554-45.846 102.4-102.4 102.4s-102.4-45.846-102.4-102.4c0-56.554 45.846-102.4 102.4-102.4s102.4 45.846 102.4 102.4zM800.455 132.332h69.945l-37.35 205.423c-5.065 27.859-32.193 50.577-60.562 50.577h-316.176c-28.844 0-55.484-22.644-60.562-50.577l-37.35-205.423h69.94l29.168 178.452h312.727l30.22-178.452zM435.2 618.732c0 98.969 80.231 179.2 179.2 179.2s179.2-80.231 179.2-179.2c0-98.969-80.231-179.2-179.2-179.2s-179.2 80.231-179.2 179.2zM482.172 388.332h-226.298c-28.223 0-55.603-22.644-61.19-50.577l-41.085-205.423h76.8l32.219 179.2h67.427l19.773 76.8h132.353zM451.955 455.344c-20.487-10.123-43.557-15.812-67.955-15.812-84.831 0-153.6 68.769-153.6 153.6s68.769 153.6 153.6 153.6c12.406 0 24.468-1.471 36.022-4.247-14.031-21.993-24.433-46.528-30.359-72.758-1.87 0.136-3.758 0.206-5.663 0.206-42.415 0-76.8-34.385-76.8-76.8s34.385-76.8 76.8-76.8c7.771 0 15.272 1.154 22.342 3.3 11.46-24.018 26.957-45.74 45.613-64.289z" />
<glyph unicode="&#xe95e;" glyph-name="pushpin" d="M490.918 384.619h-142.237c-22.909 0-41.481 18.365-41.481 41.376 0 22.851 18.642 41.376 41.481 41.376h4.441c-2.388 4.078-3.757 8.774-3.757 13.69 0 11.147 6.599 20.75 16.15 25.1-9.53 4.46-16.15 14.206-16.15 25.017 0 10.035 5.347 18.818 13.382 23.644-8.020 4.928-13.382 13.795-13.382 23.525 0 11.147 6.599 20.75 16.15 25.1-9.53 4.46-16.15 14.206-16.15 25.017 0 10.035 5.347 18.818 13.382 23.644-8.020 4.928-13.382 13.795-13.382 23.525 0 10.035 5.347 18.818 13.382 23.644-8.020 4.928-13.382 13.795-13.382 23.525 0 5.83 1.805 11.238 4.893 15.692-14.931 3.768-25.975 17.213-25.975 33.426 0 19.043 15.761 34.48 34.508 34.48h297.788c19.058 0 34.508-15.304 34.508-34.48 0-16.166-11.359-29.733-26.261-33.464 3.163-4.501 5.019-9.928 5.019-15.654 0-10.035-5.347-18.818-13.382-23.644 8.020-4.928 13.382-13.795 13.382-23.525 0-10.035-5.347-18.818-13.382-23.644 8.020-4.928 13.382-13.795 13.382-23.525 0-11.147-6.599-20.75-16.15-25.1 9.53-4.46 16.15-14.206 16.15-25.017 0-10.035-5.347-18.818-13.382-23.644 8.020-4.928 13.382-13.795 13.382-23.525 0-11.147-6.599-20.75-16.15-25.1 9.53-4.46 16.15-14.206 16.15-25.017 0-4.982-1.318-9.656-3.629-13.69h4.63c22.909 0 41.481-18.365 41.481-41.376 0-22.851-18.642-41.376-41.481-41.376h-141.614v-283.385c0-11.646-9.814-21.087-21.158-21.087-11.685 0-21.158 9.419-21.158 21.087v283.385z" />
<glyph unicode="&#xe95f;" glyph-name="query" d="M661.464 373.988l150.872-150.872-54.306-54.306-150.606 150.606c-42.656-31.795-95.552-50.616-152.844-50.616-141.385 0-256 114.615-256 256s114.615 256 256 256c141.385 0 256-114.615 256-256 0-56.386-18.23-108.514-49.117-150.812zM608.181 140.996h-358.4v76.8h358.4v-76.8zM633.781 524.8c0 98.969-80.231 179.2-179.2 179.2s-179.2-80.231-179.2-179.2c0-98.969 80.231-179.2 179.2-179.2s179.2 80.231 179.2 179.2z" />
<glyph unicode="&#xe960;" glyph-name="refresh" d="M927.751 680.862l-123.544-61.772c-70.351 140.703-223.924 232.503-397.228 209.339-171.589-23.165-308.86-164.725-327.735-336.314-25.738-231.645 155.288-428.114 381.785-428.114 163.009 0 300.281 101.237 356.047 244.514l-95.232 31.744h-0.858c-49.761-119.254-179.31-196.469-321.729-166.441-105.527 22.307-191.322 108.101-213.628 214.486-37.75 181.884 99.522 342.32 275.4 342.32 110.675 0 205.049-63.488 251.378-156.146l-128.692-65.204c-3.432-1.716-3.432-7.722 0.858-8.579l258.241-84.937c2.574-0.858 5.148 0.858 6.006 3.432l84.937 258.241c2.574 1.716-1.716 5.148-6.006 3.432v0z" />
<glyph unicode="&#xe961;" glyph-name="remove" d="M607.968 442.542l226.274-226.274-90.51-90.51-226.274 226.274-226.274-226.274-90.51 90.51 226.274 226.274-226.274 226.274 90.51 90.51 226.274-226.274 226.274 226.274 90.51-90.51z" />
<glyph unicode="&#xe962;" glyph-name="reverse" d="M742.4 729.6l128-204.8h-256l128 204.8zM384 294.4v-256l-204.8 128 204.8 128zM793.6 524.8h-102.4c0-169.662-137.538-307.2-307.2-307.2v-102.4c226.216 0 409.6 183.384 409.6 409.6zM128 832h768v-102.4h-768v102.4z" />
<glyph unicode="&#xe963;" glyph-name="rising" d="M537.6 652.8l179.2-307.2h-358.4z" />
<glyph unicode="&#xe964;" glyph-name="running" d="M512 615.117c-26.368 0-47.744 21.376-47.744 47.744v143.258c0 26.368 21.376 47.744 47.744 47.744s47.744-21.376 47.744-47.744v-143.258c0-26.368-21.376-47.744-47.744-47.744v0zM512 60.032c-16.486 0-29.85 13.363-29.85 29.85v143.258c0 16.486 13.363 29.85 29.85 29.85s29.85-13.363 29.85-29.85v-143.258c0-16.486-13.363-29.85-29.85-29.85zM404.608 589.312c-15.462 0-30.515 8.038-38.81 22.4l-71.629 124.058c-12.365 21.402-5.018 48.794 16.384 61.158s48.794 5.018 61.158-16.384l71.629-124.058c12.365-21.402 5.018-48.794-16.384-61.158-7.040-4.070-14.746-6.016-22.349-6.016zM691.072 111.002c-9.293 0-18.304 4.813-23.296 13.44l-71.629 124.058c-7.424 12.851-3.021 29.261 9.83 36.685s29.261 3.021 36.685-9.83l71.629-124.058c7.424-12.851 3.021-29.261-9.83-36.685-4.224-2.432-8.858-3.61-13.414-3.61h0.026zM325.862 513.638c-7.091 0-14.259 1.792-20.838 5.606l-124.058 71.629c-19.994 11.546-26.829 37.094-15.283 57.062s37.094 26.829 57.062 15.283l124.058-71.629c19.994-11.546 26.829-37.094 15.283-57.062-7.731-13.414-21.786-20.89-36.224-20.89v0zM822.118 245.069c-4.045 0-8.166 1.024-11.904 3.2l-124.058 71.629c-11.418 6.605-15.334 21.197-8.73 32.614s21.197 15.334 32.614 8.73l124.058-71.629c11.418-6.605 15.334-21.197 8.73-32.614-4.429-7.654-12.442-11.93-20.71-11.93zM297.139 409.216h-143.258c-21.427 0-38.81 17.357-38.81 38.784s17.357 38.784 38.81 38.784h143.258c21.427 0 38.81-17.357 38.81-38.784s-17.357-38.784-38.81-38.784v0zM870.118 424.115h-143.258c-13.184 0-23.885 10.701-23.885 23.885s10.701 23.885 23.885 23.885h143.258c13.184 0 23.885-10.701 23.885-23.885s-10.701-23.885-23.885-23.885zM201.882 233.114c-12.365 0-24.422 6.426-31.053 17.92-9.882 17.126-4.019 39.040 13.107 48.922l124.058 71.629c17.126 9.907 39.040 4.019 48.922-13.107s4.019-39.040-13.107-48.922l-124.058-71.629c-5.632-3.251-11.802-4.813-17.869-4.813v0zM698.112 531.558c-8.243 0-16.282 4.275-20.71 11.93-6.605 11.418-2.688 26.010 8.73 32.614l124.058 71.629c11.418 6.579 26.010 2.688 32.614-8.73s2.688-26.010-8.73-32.614l-124.058-71.629c-3.763-2.176-7.859-3.2-11.904-3.2v0zM332.902 105.037c-5.581 0-11.213 1.408-16.384 4.403-15.693 9.062-21.069 29.133-12.006 44.851l71.629 124.058c9.062 15.693 29.133 21.069 44.851 12.006s21.069-29.133 12.006-44.851l-71.629-124.058c-6.067-10.522-17.101-16.41-28.467-16.41v0zM619.418 610.202c-4.045 0-8.166 1.024-11.904 3.2-11.418 6.605-15.334 21.197-8.73 32.614l71.629 124.058c6.605 11.418 21.197 15.334 32.614 8.73s15.334-21.197 8.73-32.614l-71.629-124.058c-4.429-7.654-12.442-11.93-20.71-11.93z" />
<glyph unicode="&#xe965;" glyph-name="save-as" d="M950.859 960c40.229 0 73.141-32.913 73.141-73.141v-731.428c0-40.229-32.913-73.141-73.141-73.141h-731.428c-40.23 0-73.148 32.913-73.148 73.141v731.428c0 40.229 32.919 73.141 73.148 73.141h731.428zM292.572 960v-365.714c0-40.396 32.746-73.141 73.141-73.141h438.855c40.397 0 73.141 32.746 73.141 73.141v365.714h-585.138zM804.569 9.141c0-40.396-32.746-73.141-73.141-73.141h-658.286c-40.229 0-73.141 32.913-73.141 73.141v658.286c0 40.397 32.746 73.141 73.141 73.141v-731.428h731.428zM365.714 960h438.855v-292.572c0-40.396-32.746-73.141-73.141-73.141h-292.572c-40.396 0-73.141 32.746-73.141 73.141v292.572z" />
<glyph unicode="&#xe966;" glyph-name="save" d="M691.2 89.6h127.65c28.513 0 51.55 23.080 51.55 51.55v613.699c0 28.513-23.080 51.55-51.55 51.55h-613.699c-28.513 0-51.55-23.080-51.55-51.55v-613.699c0-28.513 23.080-51.55 51.55-51.55h127.65v172.934c0 28.203 22.42 51.066 51.35 51.066h255.7c28.36 0 51.35-22.833 51.35-51.066v-172.934zM288 665.971c0 28.072 22.832 50.829 51.391 50.829h345.217c28.383 0 51.391-23.128 51.391-50.829v-122.342c0-28.072-22.832-50.829-51.391-50.829h-345.217c-28.383 0-51.391 23.128-51.391 50.829v122.342zM377.6 224h134.4v-134.4h-134.4v134.4z" />
<glyph unicode="&#xe967;" glyph-name="search" d="M665.893 355.582h-32.582l-11.27 11.27c40.164 46.516 64.344 106.967 64.344 173.155 0 147.13-119.262 266.392-266.392 266.392s-266.392-119.262-266.392-266.392c0-147.13 119.262-266.392 266.392-266.392 66.188 0 126.639 24.18 173.155 64.139l11.27-11.27v-32.377l204.917-204.507 61.065 61.065-204.507 204.917zM419.992 355.582c-101.844 0-184.425 82.582-184.425 184.425s82.582 184.425 184.425 184.425c101.844 0 184.425-82.582 184.425-184.425s-82.582-184.425-184.425-184.425v0z" />
<glyph unicode="&#xe968;" glyph-name="selected" d="M204.8 464.313l62.354 62.354 158.759-158.317 335.65 335.65 62.354-62.796-398.004-398.004z" />
<glyph unicode="&#xe969;" glyph-name="session-property" d="M922.231 391.111h-144.276v-72.533h144.276v72.533zM922.231 536.178h-192.631v-72.533h192.631v72.533zM922.231 681.244h-240.987v-72.533h240.987v72.533zM616.039 318.604c1.391 1.531 3.688 2.962 7.402 5.172-3.455-2.056 7.859 4.554 10.46 6.242 1.499 0.973 2.851 1.915 5.862 3.909l33.257 14.992v-21.083c0-21.792-7.727-48.438-23.41-56.383l-225.116-102.744c-10.271-5.208-20.703-7.854-31.211-7.854s-20.94 2.646-30.87 7.69l-225.797 103.072c-10.236 5.191-16.444 15.5-19.916 29.063-2.456 9.598-3.153 18.37-3.153 27.156v29.27l15.733-15.958 3.112-3.412c8.847-5.982 23.616-13.984 27.635-16.155 0.672-0.363 1.044-0.563 1.037-0.563l5.887-2.415 226.333-104.113 222.757 104.113zM136.955 486.418c-12.623 6.394-21.155 21.106-21.155 35.801 0 17.597 6.51 31.539 20.62 40.11l225.651 121.304c25.301 12.832 42.26 12.832 62.617-0.102l225.883-121.447c13.683-8.327 20.194-22.269 20.194-39.866 0-16.273-7.894-29.084-21.156-35.801l-225.116-102.744c-10.271-5.208-20.703-7.854-31.211-7.854s-20.94 2.646-30.87 7.69l-225.457 102.908zM393.282 440.728l199.914 84.835-199.914 109.665-199.914-109.665 199.914-84.835zM619.091 429.793l53.928 27.35v-21.824c0-21.792-7.727-48.438-23.41-56.383l-225.116-102.744c-10.271-5.208-20.703-7.854-31.211-7.854s-20.94 2.646-30.87 7.69l-225.797 103.072c-10.236 5.191-16.444 15.5-19.916 29.063-2.456 9.598-3.153 18.37-3.153 27.156v21.823l13.345-6.767 5.5-2.87c5.898-3.988 15.544-8.934 28.938-14.835l231.954-108.411 225.809 105.534z" />
<glyph unicode="&#xe96a;" glyph-name="session" d="M785.103 313.516c1.782 1.961 4.725 3.795 9.484 6.626-4.426-2.634 10.068 5.835 13.401 7.998 1.921 1.247 3.652 2.453 7.51 5.009l42.609 19.208v-27.011c0-27.919-9.899-62.059-29.993-72.238l-288.42-131.636c-13.159-6.673-26.525-10.062-39.987-10.062s-26.829 3.389-39.551 9.852l-289.292 132.057c-13.115 6.651-21.069 19.858-25.516 37.236-3.147 12.297-4.040 23.536-4.040 34.792v37.501l20.157-20.446 3.988-4.372c11.335-7.665 30.256-17.917 35.406-20.697 0.861-0.465 1.337-0.721 1.328-0.721l7.542-3.094 289.979-133.39 285.397 133.39zM171.299 528.518c-16.173 8.192-27.104 27.041-27.104 45.869 0 22.545 8.341 40.407 26.418 51.389l289.105 155.416c32.415 16.44 54.144 16.44 80.225-0.13l289.402-155.598c17.531-10.669 25.873-28.531 25.873-51.076 0-20.849-10.114-37.262-27.105-45.869l-288.42-131.636c-13.159-6.673-26.525-10.062-39.987-10.062s-26.829 3.389-39.551 9.852l-288.856 131.846zM499.706 469.981l256.131 108.69-256.131 140.503-256.131-140.503 256.131-108.69zM789.014 455.971l69.093 35.041v-27.961c0-27.919-9.899-62.059-29.993-72.238l-288.42-131.636c-13.159-6.673-26.525-10.062-39.987-10.062s-26.829 3.389-39.551 9.852l-289.292 132.057c-13.114 6.651-21.069 19.858-25.516 37.236-3.147 12.297-4.040 23.536-4.040 34.792v27.96l17.098-8.67 7.047-3.677c7.557-5.11 19.915-11.446 37.075-19.007l297.181-138.896 289.307 135.21z" />
<glyph unicode="&#xe96b;" glyph-name="setting" d="M786.918 410.368c1.536 12.288 2.688 24.576 2.688 37.632s-1.152 25.344-2.688 37.632l81.024 63.36c7.296 5.76 9.216 16.128 4.608 24.576l-76.8 132.864c-4.608 8.448-14.976 11.52-23.424 8.448l-95.616-38.4c-19.968 15.36-41.472 28.032-64.896 37.632l-14.592 101.76c-1.152 9.216-9.216 16.128-18.816 16.128h-153.6c-9.6 0-17.664-6.912-18.816-16.128l-14.592-101.76c-23.424-9.6-44.928-22.656-64.896-37.632l-95.616 38.4c-8.832 3.456-18.816 0-23.424-8.448l-76.8-132.864c-4.992-8.448-2.688-18.816 4.608-24.576l81.024-63.36c-1.536-12.288-2.688-24.96-2.688-37.632s1.152-25.344 2.688-37.632l-81.024-63.36c-7.296-5.76-9.216-16.128-4.608-24.576l76.8-132.864c4.608-8.448 14.976-11.52 23.424-8.448l95.616 38.4c19.968-15.36 41.472-28.032 64.896-37.632l14.592-101.76c1.152-9.216 9.216-16.128 18.816-16.128h153.6c9.6 0 17.664 6.912 18.816 16.128l14.592 101.76c23.424 9.6 44.928 22.656 64.896 37.632l95.616-38.4c8.832-3.456 18.816 0 23.424 8.448l76.8 132.864c4.608 8.448 2.688 18.816-4.608 24.576l-81.024 63.36zM501.606 313.6c-74.112 0-134.4 60.288-134.4 134.4s60.288 134.4 134.4 134.4c74.112 0 134.4-60.288 134.4-134.4s-60.288-134.4-134.4-134.4v0z" />
<glyph unicode="&#xe96c;" glyph-name="stack-chart" d="M153.6 192.127v563.073h76.8v-563.073c0-7.163 5.743-12.927 12.723-12.927h614.477v-76.8h-614.477c-49.459 0-89.523 40.211-89.523 89.727zM307.2 243.2v143.659l230.4 94.51 230.4 171.431v-409.6h-460.8z" />
<glyph unicode="&#xe96d;" glyph-name="success" d="M512 857.6c-56.452 0-109.62-10.667-159.508-32s-93.374-50.543-130.462-87.631c-37.087-37.087-66.297-80.574-87.631-130.462s-32-103.056-32-159.508c0-56.452 10.667-109.62 32-159.508s50.543-93.374 87.631-130.462c37.087-37.087 80.574-66.297 130.462-87.631s103.056-32 159.508-32c56.452 0 109.62 10.667 159.508 32s93.374 50.543 130.462 87.631c37.087 37.087 66.297 80.574 87.631 130.462s32 103.056 32 159.508c0 56.452-10.667 109.62-32 159.508s-50.543 93.374-87.631 130.462c-37.087 37.087-80.574 66.297-130.462 87.631s-103.056 32-159.508 32v0zM740.431 538.585l-298.339-298.338c-3.938-3.939-8.533-5.908-13.784-5.908s-9.846 1.969-13.785 5.908l-5.908 5.908-164.431 165.415c-3.938 3.939-5.908 8.533-5.908 13.785s1.969 9.846 5.908 13.784l40.369 40.369c3.939 3.938 8.533 5.908 13.785 5.908s9.846-1.969 13.784-5.908l116.185-117.169 244.185 244.185c3.938 3.938 8.533 5.908 13.784 5.908s9.846-1.969 13.785-5.908l40.369-40.369c3.938-3.938 5.908-8.533 5.908-13.785s-1.969-9.846-5.908-13.785v0z" />
<glyph unicode="&#xe96e;" glyph-name="table" d="M435.2 422.4v-230.4h153.6v230.4h-153.6zM435.2 473.6h153.6v153.6h51.2v-153.6h179.2v153.6h-614.4v-153.6h179.2v153.6h51.2v-153.6zM384 422.4h-179.2v-230.4h179.2v230.4zM819.2 422.4h-179.2v-230.4h179.2v230.4zM128 729.677c0 28.235 22.985 51.123 51.583 51.123h664.834c28.489 0 51.583-22.911 51.583-51.123v-563.353c0-28.235-22.985-51.123-51.583-51.123h-664.834c-28.489 0-51.583 22.911-51.583 51.123v563.353z" />
<glyph unicode="&#xe96f;" glyph-name="tag" d="M178.482 475.337l24.229 308.574 309.512 2.645 341.351-366.054c19.167-20.554 17.695-53.077-2.931-72.312l-258.47-241.027c-20.786-19.383-53.315-18.281-72.34 2.12l-341.351 366.054zM391.192 595.098c20.057 18.703 21.154 50.124 2.451 70.181s-50.124 21.154-70.181 2.451c-20.057-18.703-21.154-50.124-2.451-70.181s50.124-21.154 70.181-2.451z" />
<glyph unicode="&#xe970;" glyph-name="track-manager" d="M256.3 806.4h511.4c56.72 0 102.7-45.929 102.7-102.7v-511.4c0-56.72-45.929-102.7-102.7-102.7h-511.4c-56.72 0-102.7 45.929-102.7 102.7v511.4c0 56.72 45.929 102.7 102.7 102.7zM204.8 192.3c0-28.472 23.036-51.5 51.5-51.5h511.4c28.472 0 51.5 23.036 51.5 51.5v511.4c0 28.472-23.036 51.5-51.5 51.5h-511.4c-28.472 0-51.5-23.036-51.5-51.5v-511.4zM314.88 565.76c21.208 0 38.4 17.192 38.4 38.4s-17.192 38.4-38.4 38.4c-21.208 0-38.4-17.192-38.4-38.4s17.192-38.4 38.4-38.4zM314.88 412.16c21.208 0 38.4 17.192 38.4 38.4s-17.192 38.4-38.4 38.4c-21.208 0-38.4-17.192-38.4-38.4s17.192-38.4 38.4-38.4zM314.88 258.56c21.208 0 38.4 17.192 38.4 38.4s-17.192 38.4-38.4 38.4c-21.208 0-38.4-17.192-38.4-38.4s17.192-38.4 38.4-38.4zM409.6 632.32h327.68v-51.2h-327.68v51.2zM409.6 478.72h327.68v-51.2h-327.68v51.2zM409.6 325.12h327.68v-51.2h-327.68v51.2z" />
<glyph unicode="&#xe971;" glyph-name="upload" d="M803.84 574.159h-160.914v-242.949h-241.371v242.949h-160.914l281.6 283.441 281.6-283.441zM240.64 136.615v80.983h563.2v-80.983h-563.2z" />
<glyph unicode="&#xe972;" glyph-name="user-analysis" d="M486.4 627.2c0 56.554-45.846 102.4-102.4 102.4s-102.4-45.846-102.4-102.4c0-56.554 45.846-102.4 102.4-102.4s102.4 45.846 102.4 102.4zM570.102 140.8h69.898l-37.35 205.423c-5.065 27.859-32.193 50.577-60.562 50.577h-316.176c-28.844 0-55.484-22.644-60.562-50.577l-37.35-205.423h69.895l29.213 178.728h312.727l30.267-178.728zM204.8 627.2c0 98.969 80.231 179.2 179.2 179.2s179.2-80.231 179.2-179.2c0-98.969-80.231-179.2-179.2-179.2s-179.2 80.231-179.2 179.2zM742.4 217.6h152.763v-76.8h-152.763v76.8zM691.2 371.2h203.963v-76.8h-203.963v76.8zM640 524.8h255.163v-76.8h-255.163v76.8z" />
<glyph unicode="&#xe973;" glyph-name="user-line" d="M512 760.32c59.392 0 107.52-48.128 107.52-107.52s-48.128-107.52-107.52-107.52c-59.392 0-107.52 48.128-107.52 107.52s48.128 107.52 107.52 107.52v0zM512 299.52c152.32 0 312.32-74.496 312.32-107.52v-56.32h-624.64v56.32c0 33.024 160 107.52 312.32 107.52v0zM512 857.6c-113.152 0-204.8-91.648-204.8-204.8 0-112.896 91.648-204.8 204.8-204.8s204.8 91.904 204.8 204.8c0 113.152-91.648 204.8-204.8 204.8v0zM512 396.8c-136.448 0-409.6-68.352-409.6-204.8v-153.6h819.2v153.6c0 136.448-273.152 204.8-409.6 204.8v0z" />
<glyph unicode="&#xe974;" glyph-name="user-property" d="M502.112 619.344c0 50.954-41.306 92.261-92.261 92.261s-92.261-41.306-92.261-92.261c0-50.954 41.306-92.261 92.261-92.261s92.261 41.306 92.261 92.261zM577.526 181.106h62.977l-32.837 180.604c-4.925 27.089-31.889 50.048-60.001 50.048h-275.626c-28.422 0-54.976-22.407-60.001-50.048l-32.837-180.604h62.974l26.32 161.031h281.762l27.27-161.031zM248.395 619.344c0 89.17 72.286 161.456 161.456 161.456s161.456-72.286 161.456-161.456c0-89.17-72.286-161.456-161.456-161.456s-161.456 72.286-161.456 161.456zM732.764 250.301h137.636v-69.195h-137.636v69.195zM686.633 388.692h183.767v-69.195h-183.767v69.195zM640.503 527.083h229.897v-69.195h-229.897v69.195z" />
<glyph unicode="&#xe975;" glyph-name="userpath" d="M384 296.96v64h-204.8v-204.8h204.8v64c77.601 0.029 140.8 63.062 140.8 140.703v204.994c0 35.52 28.502 63.903 64.053 63.903h51.147v76.8h-51.147c-77.895 0-140.853-62.695-140.853-140.703v-204.994c0-35.176-28.764-63.874-64-63.903zM245.76 294.4h71.68v-71.68h-71.68v71.68zM640 770.56v-204.8h204.8v204.8h-204.8zM706.56 704h71.68v-71.68h-71.68v71.68z" />
<glyph unicode="&#xe976;" glyph-name="visible" d="M950.857 448.483c0 5.385-0.889 9.882-1.146 10.418-0.191 2.666-1.080 7.526-1.907 10.077-0.222 0.636-0.51 1.302-0.767 1.936-0.447 1.465-0.921 2.893-1.461 4.031-80.939 180.727-255.191 302.197-433.556 302.197-178.33 0-352.567-121.355-433.136-301.11-0.971-1.947-1.656-3.816-2.087-5.443-0.189-0.535-0.41-1.039-0.586-1.512-1.594-4.766-1.624-8.078-1.496-7.216-0.75-3.496-1.435-10.449-1.435-10.449-0.189-2.095-0.189-3.769 0.031-5.853 0 0 0.683-6.077 1.023-7.311 0.093-1.721 0.509-4.226 1.003-6.503h-0.036c0.432-1.947 1.017-3.837 1.829-5.689 0.417-1.428 0.911-2.761 1.342-3.769 81.042-180.758 255.253-302.261 433.547-302.261 178.395 0 352.648 121.402 432.662 300.245 1.239 2.341 2.036 4.551 2.581 6.471 0.251 0.583 0.478 1.103 0.637 1.622 1.398 4.162 1.686 7.769 1.558 7.769l-0.031-0.032c0.571 2.891 1.429 7.216 1.429 12.381zM891.768 446.273c-0.032-0.13-0.099-0.288-0.159-0.419-0.099-0.394-0.253-0.845-0.35-1.302-72.020-158.462-224.084-264.786-379.237-264.786-154.769 0-306.561 106.030-379.295 265.044-0.178 0.556-0.302 1.075-0.493 1.595-0.036 0.52-0.128 0.939-0.159 1.233-0.066 0.325-0.128 0.782-0.174 1.17v0.41c0.174 0.666 0.298 1.333 0.365 2.062 0.129 0.388 0.221 0.76 0.364 1.186 72.051 158.541 224.244 264.918 379.393 264.918 155.215 0 307.376-106.471 379.202-264.771 0.066-0.309 0.127-0.572 0.225-0.782 0.062-0.257 0.124-0.52 0.253-0.798 0.159-1.185 0.288-2.357 0.448-2.938-0.191-0.619-0.288-1.203-0.38-1.822zM512.021 597.929c-80.647 0-146.301-66.993-146.301-149.347 0-82.333 65.654-149.361 146.301-149.361 80.651 0 146.301 67.029 146.301 149.361 0 82.354-65.65 149.347-146.301 149.347zM512.021 358.965c-48.361 0-87.777 40.209-87.777 89.618 0 49.394 39.417 89.598 87.777 89.598 48.396 0 87.782-40.209 87.782-89.598 0-49.409-39.385-89.618-87.782-89.618z" />
<glyph unicode="&#xe977;" glyph-name="vtrack-manager" d="M235.043 499.2c21.027 114.475 111.282 204.729 225.757 225.757v55.843h102.4v-55.843c114.475-21.027 204.729-111.282 225.757-225.757h55.843v-102.4h-55.843c-21.027-114.475-111.282-204.729-225.757-225.757v-55.843h-102.4v55.843c-114.475 21.027-204.729 111.282-225.757 225.757h-55.843v102.4h55.843zM732.16 448c0 121.591-98.569 220.16-220.16 220.16s-220.16-98.569-220.16-220.16c0-121.591 98.569-220.16 220.16-220.16s220.16 98.569 220.16 220.16zM512 396.8c28.277 0 51.2 22.923 51.2 51.2s-22.923 51.2-51.2 51.2c-28.277 0-51.2-22.923-51.2-51.2s22.923-51.2 51.2-51.2z" />
<glyph unicode="&#xe978;" glyph-name="warning" d="M512 857.6c-56.452 0-109.62-10.667-159.508-32s-93.374-50.543-130.462-87.631c-37.087-37.087-66.297-80.574-87.631-130.462s-32-103.056-32-159.508c0-56.452 10.667-109.62 32-159.508s50.543-93.374 87.631-130.462c37.087-37.087 80.574-66.297 130.462-87.631s103.056-32 159.508-32c56.452 0 109.62 10.667 159.508 32s93.374 50.543 130.462 87.631c37.087 37.087 66.297 80.574 87.631 130.462s32 103.056 32 159.508c0 56.452-10.667 109.62-32 159.508s-50.543 93.374-87.631 130.462c-37.087 37.087-80.574 66.297-130.462 87.631s-103.056 32-159.508 32v0zM512 215.631c-13.128 0-24.287 4.595-33.477 13.785s-13.785 20.349-13.785 33.477c0 13.128 4.595 24.287 13.785 33.477s20.349 13.785 33.477 13.785c13.128 0 24.287-4.595 33.477-13.785s13.785-20.349 13.785-33.477c0-13.128-4.595-24.287-13.785-33.477s-20.349-13.785-33.477-13.785v0zM559.262 420.431c0-13.128-4.595-24.287-13.785-33.477s-20.349-13.785-33.477-13.785c-13.128 0-24.287 4.595-33.477 13.785s-13.785 20.349-13.785 33.477v220.554c0 13.128 4.595 24.287 13.785 33.477s20.349 13.785 33.477 13.785c13.128 0 24.287-4.595 33.477-13.785s13.785-20.349 13.785-33.477v-220.554z" />
<glyph unicode="&#xe979;" glyph-name="web-click" d="M768 601.6c0-84.831-68.769-153.6-153.6-153.6s-153.6 68.769-153.6 153.6c0 84.831 68.769 153.6 153.6 153.6s153.6-68.769 153.6-153.6zM460.8 345.6c0-56.554-45.846-102.4-102.4-102.4s-102.4 45.846-102.4 102.4c0 56.554 45.846 102.4 102.4 102.4s102.4-45.846 102.4-102.4zM768 217.6c0-42.415-34.385-76.8-76.8-76.8s-76.8 34.385-76.8 76.8c0 42.415 34.385 76.8 76.8 76.8s76.8-34.385 76.8-76.8z" />
<glyph unicode="&#xe97a;" glyph-name="web" d="M805.236 780.8h-586.473c-35.84 0-65.164-29.324-65.164-65.164v-390.982c0-35.84 29.324-65.164 65.164-65.164h228.073l-65.164-97.745v-32.582h260.655v32.582l-65.164 97.745h228.073c35.84 0 65.164 29.324 65.164 65.164v390.982c0 35.84-29.324 65.164-65.164 65.164v0zM805.236 389.818h-586.473v325.818h586.473v-325.818z" />
</font>
</defs>
</svg>
